<?xml version="1.0" standalone="no"?>
<!DOCTYPE svg PUBLIC "-//W3C//DTD SVG 1.1//EN" "http://www.w3.org/Graphics/SVG/1.1/DTD/svg11.dtd" >
<svg xmlns="http://www.w3.org/2000/svg" xmlns:xlink="http://www.w3.org/1999/xlink" version="1.1">
<metadata>
Created by FontForge 20170731 at Mon Nov 13 00:47:32 2017
 By Aleksey,,,
Copyright  2016 by Damoon Khanjanzadeh. All rights reserved.
</metadata>
<defs>
<font id="SGKara-Regular" horiz-adv-x="0" >
  <font-face 
    font-family="SG Kara"
    font-weight="400"
    font-stretch="normal"
    units-per-em="2048"
    panose-1="0 0 5 0 0 0 0 0 0 0"
    ascent="1318"
    descent="-730"
    x-height="1117"
    cap-height="1489"
    bbox="-416 -1315 3073 2117"
    underline-thickness="100"
    underline-position="-820"
    unicode-range="U+000D-FFFD"
  />
<missing-glyph horiz-adv-x="995" 
d="M815 -423h-630v1989h630v-1989zM334 1433v-66h129v-73h-131v-66h330v66h-131v73h131v66h-328zM332 1176v-207h330v68h-131v139h-199zM463 1037h-65v72h65v-72zM332 916v-66h131v-74h-131v-65h199v139h131v66h-330zM597 796v-131h-265v-68h330v199h-65zM463 554v-112h68
v46h66v-94h-199v160h-66v-225h330v225h-199zM332 210v-225h330v225h-330zM597 50h-199v94h199v-94zM332 -61v-66h139l-139 -93v-66h330v66h-203l140 93h63v66h-330z" />
    <glyph glyph-name="fi" unicode="fi" horiz-adv-x="1092" 
d="M954 0h-188v964h-422v-964h-188v961h-127v156h127v57q0 119 44 208t122.5 136.5t180.5 47.5q59 0 108 -7t57 -8v-172h-10q-21 8 -58 15.5t-74 7.5q-103 0 -145.5 -53.5t-42.5 -173.5v-58h616v-1117zM954 1304h-202v195h202v-195z" />
    <glyph glyph-name="fl" unicode="fl" horiz-adv-x="1086" 
d="M948 0h-188v1404q-26 3 -63.5 5t-66.5 2q-110 0 -173 -23t-91 -76t-28 -148v-47h243v-156h-237v-961h-188v961h-127v156h127v49q0 194 122 302q54 47 141 72.5t189 25.5q64 0 207 -15l35 -3l98 8v-1556z" />
    <glyph glyph-name="uniFDF2" unicode="&#x627;&#xfedf;&#xfee0;&#xfeea;" horiz-adv-x="2534" arabic-form="isolated" 
d="M1050 1194h124v-173h112l-8 438l138 23v-461l125 -1l-21 199l131 17v-215q0 -40 -22.5 -73t-61.5 -51.5t-87 -18.5q-36 0 -70 11.5t-62 33.5q-61 -49 -135 -49q-46 0 -83.5 19t-58.5 52.5t-21 75.5v173zM2209 1314l232 32l2 -1346l-196 1zM844 255q52 -24 117 -36
t134 -12q94 0 179 22l-42 502l234 30l1 -527q66 -19 173 -19q76 0 142 11.5t103 34.5l-51 878l231 36l10 -800q1 -127 -54.5 -222t-151 -145.5t-210.5 -50.5q-76 0 -154.5 23t-151.5 69q-66 -43 -141.5 -65.5t-150.5 -22.5q-115 0 -207 52.5t-136 154.5l-50 -119
q-59 -14 -100.5 -19.5t-93.5 -5.5q-100 0 -189 20t-154 58v200q0 208 45.5 316t145.5 159.5t302 94.5l-11 186l227 46zM661 653q-150 -25 -224.5 -54t-107.5 -85.5t-33 -164.5v-66q94 -24 209 -24q93 0 173 14z" />
    <glyph glyph-name="uniFDFC" unicode="&#x61f;&#x631;" horiz-adv-x="2343" arabic-form="isolated" 
d="M1939.5 599.5q5.5 -147.5 5.5 -220.5q0 -85 -59.5 -148t-164.5 -92q-100 -27 -205 -27h-213q-161 0 -240 74t-83 228l-12 468l-76 -1l9 -752q-2 -83 -73 -141t-178.5 -87.5t-216.5 -29.5q-159 0 -241 84.5t-82 248.5q0 53 25 268l153 -1q-13 -99 -19 -153t-6 -93
q0 -86 47.5 -127t152.5 -41q117 0 294 43l-35 708l-1 26q0 100 47.5 150t153.5 64l217 30v-735q48 -24 116.5 -34t220.5 -10q93 0 163 9.5t155 36.5l-48 427l182 46q6 -71 11.5 -218.5zM2237 551q6 -128 6 -220q0 -135 -53 -240t-145 -163t-205 -58q-71 0 -151 26v169
q55 -5 96 -5q127 0 206.5 49.5t115.5 176.5l-71 470l183 48q12 -125 18 -253zM1095 -100l135 159l116 -96l73 96l176 -130l-135 -160l-116 97l-73 -97z" />
    <glyph glyph-name="uniFEF5" unicode="&#xfedf;&#xfe82;" horiz-adv-x="1208" arabic-form="isolated" 
d="M276 173l301 426l-521 421l96 234l645 -570l-21 711l232 30l-1 -463q0 -83 -5.5 -138t-24.5 -108.5t-58 -107.5q78 -80 114.5 -129.5t52 -103.5t15.5 -138q0 -102 -56.5 -177.5t-172.5 -105.5q-136 -36 -382 -36q-132 0 -336 13l-13 244zM467 157q96 -2 137 -2
q116 0 203.5 8.5t155.5 30.5q-3 61 -54.5 132t-191.5 182zM313 1308q-118 0 -229 32l-28 -80l-114 43l84 224q91 -25 160 -38t148 -13q107 0 233 28l-8 -164q-128 -32 -246 -32z" />
    <glyph glyph-name="uniFEF6" unicode="&#xfee0;&#xfe82;" horiz-adv-x="1224" arabic-form="final" 
d="M899 268q41 -27 124 -45.5t156 -18.5h90v-234h-90q-100 0 -181 29t-153 88q-33 -89 -113.5 -144.5t-218.5 -82t-349 -28.5l-41 1212l232 30l2 -998q108 3 186.5 16t149.5 42l-27 1182l232 28zM319 1150q-118 0 -229 32l-28 -80l-114 43l84 224q91 -25 160 -38t148 -13
q107 0 233 28l-8 -164q-128 -32 -246 -32z" />
    <glyph glyph-name="uniFEF7" unicode="&#xfedf;&#xfe84;" horiz-adv-x="1208" arabic-form="isolated" 
d="M276 173l301 426l-521 421l96 234l645 -570l-21 711l232 30l-1 -463q0 -83 -5.5 -138t-24.5 -108.5t-58 -107.5q78 -80 114.5 -129.5t52 -103.5t15.5 -138q0 -102 -56.5 -177.5t-172.5 -105.5q-136 -36 -382 -36q-132 0 -336 13l-13 244zM467 157q96 -2 137 -2
q116 0 203.5 8.5t155.5 30.5q-3 61 -54.5 132t-191.5 182zM395 1639q-88 0 -163 -27l41 -194l320 43v-139l-554 -72v138l111 13q-33 119 -33 181q0 57 35.5 100.5t97 67.5t136.5 24q57 0 113 -13v-131q-54 9 -104 9z" />
    <glyph glyph-name="uniFEF8" unicode="&#xfee0;&#xfe84;" horiz-adv-x="1224" arabic-form="final" 
d="M899 268q41 -27 124 -45.5t156 -18.5h90v-234h-90q-100 0 -181 29t-153 88q-33 -89 -113.5 -144.5t-218.5 -82t-349 -28.5l-41 1212l232 30l2 -998q108 3 186.5 16t149.5 42l-27 1182l232 28zM357 1649q-88 0 -163 -27l41 -194l320 43v-139l-554 -72v138l111 13
q-33 119 -33 181q0 57 35.5 100.5t97 67.5t136.5 24q57 0 113 -13v-131q-54 9 -104 9z" />
    <glyph glyph-name="uniFEF9" unicode="&#xfedf;&#xfe88;" horiz-adv-x="1208" arabic-form="isolated" 
d="M276 173l301 426l-521 421l96 234l645 -570l-21 711l232 30l-1 -463q0 -83 -5.5 -138t-24.5 -108.5t-58 -107.5q78 -80 114.5 -129.5t52 -103.5t15.5 -138q0 -102 -56.5 -177.5t-172.5 -105.5q-136 -36 -382 -36q-132 0 -336 13l-13 244zM467 157q96 -2 137 -2
q116 0 203.5 8.5t155.5 30.5q-3 61 -54.5 132t-191.5 182zM732 -358q-88 0 -163 -27l41 -194l320 43v-139l-554 -72v138l111 13q-33 119 -33 181q0 57 35.5 100.5t97 67.5t136.5 24q57 0 113 -13v-131q-54 9 -104 9z" />
    <glyph glyph-name="uniFEFA" unicode="&#xfee0;&#xfe88;" horiz-adv-x="1224" arabic-form="final" 
d="M899 268q41 -27 124 -45.5t156 -18.5h90v-234h-90q-100 0 -181 29t-153 88q-33 -89 -113.5 -144.5t-218.5 -82t-349 -28.5l-41 1212l232 30l2 -998q108 3 186.5 16t149.5 42l-27 1182l232 28zM608 -442q-88 0 -163 -27l41 -194l320 43v-139l-554 -72v138l111 13
q-33 119 -33 181q0 57 35.5 100.5t97 67.5t136.5 24q57 0 113 -13v-131q-54 9 -104 9z" />
    <glyph glyph-name="uniFEFB" unicode="&#xfedf;&#xfe8e;" horiz-adv-x="1208" arabic-form="isolated" 
d="M276 173l301 426l-521 421l96 234l645 -570l-21 711l232 30l-1 -463q0 -83 -5.5 -138t-24.5 -108.5t-58 -107.5q78 -80 114.5 -129.5t52 -103.5t15.5 -138q0 -102 -56.5 -177.5t-172.5 -105.5q-136 -36 -382 -36q-132 0 -336 13l-13 244zM467 157q96 -2 137 -2
q116 0 203.5 8.5t155.5 30.5q-3 61 -54.5 132t-191.5 182z" />
    <glyph glyph-name="uniFEFC" unicode="&#xfee0;&#xfe8e;" horiz-adv-x="1224" arabic-form="final" 
d="M899 268q41 -27 124 -45.5t156 -18.5h90v-234h-90q-100 0 -181 29t-153 88q-33 -89 -113.5 -144.5t-218.5 -82t-349 -28.5l-41 1212l232 30l2 -998q108 3 186.5 16t149.5 42l-27 1182l232 28z" />
    <glyph glyph-name="f_f" unicode="ff" horiz-adv-x="1256" 
d="M1328 1376h-10q-26 10 -73.5 18t-82.5 8q-81 0 -128.5 -23t-69.5 -76.5t-22 -147.5v-38h311v-156h-305v-961h-188v961h-416v-961h-188v961h-127v156h127v37q0 201 97 306.5t278 105.5q83 0 193 -18v-172h-10q-26 10 -73.5 18t-82.5 8q-81 0 -128.5 -23t-69.5 -76.5
t-22 -147.5v-38h422v37q0 201 97 306.5t278 105.5q83 0 193 -18v-172z" />
    <glyph glyph-name="f_f_i" unicode="ffi" horiz-adv-x="1685" 
d="M1558 0h-188v961h-422v-961h-188v961h-416v-961h-188v961h-127v156h127v37q0 201 97 306.5t278 105.5q83 0 193 -18v-172h-10q-26 10 -73.5 18t-82.5 8q-81 0 -128.5 -23t-69.5 -76.5t-22 -147.5v-38h422v57q0 119 44 208t122.5 136.5t180.5 47.5q59 0 108 -7t57 -8v-172
h-10q-21 8 -58 15.5t-74 7.5q-103 0 -145.5 -53.5t-42.5 -173.5v-58h616v-1117zM1558 1304h-202v195h202v-195z" />
    <glyph glyph-name="f_f_l" unicode="ffl" horiz-adv-x="1693" 
d="M1553 0h-188v1404q-26 3 -63.5 5t-66.5 2q-110 0 -173 -23t-91 -76t-28 -148v-47h243v-156h-237v-961h-188v961h-417v-961h-188v961h-127v156h127v37q0 203 96 307.5t279 104.5q81 0 193 -18v-172h-10q-29 10 -75 18t-81 8q-81 0 -128.5 -23t-69.5 -76.5t-22 -147.5v-38
h423v49q0 194 122 302q54 47 141 72.5t189 25.5q64 0 207 -15l35 -3l98 8v-1556z" />
    <glyph glyph-name="uni06440671" unicode="&#xfedf;&#xfb51;" horiz-adv-x="1208" 
d="M276 173l301 426l-521 421l96 234l645 -570l-21 711l232 30l-1 -463q0 -83 -5.5 -138t-24.5 -108.5t-58 -107.5q78 -80 114.5 -129.5t52 -103.5t15.5 -138q0 -102 -56.5 -177.5t-172.5 -105.5q-136 -36 -382 -36q-132 0 -336 13l-13 244zM467 157q96 -2 137 -2
q116 0 203.5 8.5t155.5 30.5q-3 61 -54.5 132t-191.5 182zM153 1516l84 -79q68 109 144 162t164 53q80 0 121 -41t41 -121v-208h-198q-109 0 -171.5 7t-103.5 25t-81 54l-82 -101l-40 117zM413 1394q42 -2 105 -2h88l-1 129q-29 11 -82 11t-103.5 -34t-84.5 -94
q36 -8 78 -10z" />
    <glyph glyph-name="uni06440671.fina" unicode="&#xfee0;&#xfb51;" horiz-adv-x="1224" 
d="M899 268q41 -27 124 -45.5t156 -18.5h90v-234h-90q-100 0 -181 29t-153 88q-33 -89 -113.5 -144.5t-218.5 -82t-349 -28.5l-41 1212l232 30l2 -998q108 3 186.5 16t149.5 42l-27 1182l232 28zM34 1396l84 -79q68 109 144 162t164 53q80 0 121 -41t41 -121v-208h-198
q-109 0 -171.5 7t-103.5 25t-81 54l-82 -101l-40 117zM294 1274q42 -2 105 -2h88l-1 129q-29 11 -82 11t-103.5 -34t-84.5 -94q36 -8 78 -10z" />
    <glyph glyph-name="toman" unicode="&#x61f;&#x62a;" horiz-adv-x="2880" 
d="M2434 925l85 -86l81 83l111 -110l-111 -109l-85 87l-81 -85l-114 105zM958 920v-680q23 -28 57 -38t97 -10q51 0 82 14.5t54.5 46t55.5 94.5l133 265l241 -76q61 -19 83.5 -61.5t22.5 -99.5q0 -102 -30 -181t-87 -123t-136 -44q-77 0 -134 40.5t-84 110.5
q-66 -122 -201 -122q-90 0 -145 25t-81 81t-28 151l-12 586zM395 675l103 -109l-103 -110l-101 110zM1857 -62q7 -1 48 -6.5t77 -5.5q64 0 122 16.5t96.5 47.5t45.5 74q-43 -5 -81 -7.5t-103 -2.5q-105 0 -151 51.5t-46 169.5q0 71 12 188q19 181 192 181q142 0 208 -109
t68 -342q128 0 193 11t99 37l-31 385l111 30q5 -60 9 -181.5t4 -193.5q0 -110 -97.5 -168t-297.5 -58q-23 -136 -106.5 -200.5t-250.5 -64.5q-59 0 -121 18v130zM153 184q3 45 16 174h88q-13 -118 -17 -163t-4 -73q0 -85 43 -123.5t142 -38.5q58 0 135 19t137 51l-56 524
l107 41l4 -48q36 -380 36 -489q0 -83 -73.5 -137t-166 -79t-146.5 -25q-127 0 -187.5 71t-60.5 216q0 35 3 80zM1966 237.5q11 -24.5 38 -35t77 -10.5h164q-1 128 -17 194.5t-57.5 94t-123.5 27.5q-26 0 -36.5 -1.5t-22.5 -4.5t-21 -5q-12 -144 -12 -188q0 -47 11 -71.5z
M1441 194.5q37 -29.5 93 -29.5q82 0 122 49.5t48 154.5l-239 76l-80 -167q19 -54 56 -83.5z" />
    <glyph glyph-name="uni066E.init" unicode="&#x66e;" horiz-adv-x="744" 
d="M45 204q135 0 242.5 19.5t171.5 56.5l-59 592l229 49q9 -135 16.5 -308.5t7.5 -272.5q0 -111 -76.5 -194.5t-214 -129.5t-317.5 -46h-90v234h90z" />
    <glyph glyph-name="uni066E.medi" unicode="&#x66e;" horiz-adv-x="844" 
d="M799 -30q-88 0 -185 27.5t-161 70.5q-79 -50 -178.5 -74t-229.5 -24h-90v234h90q107 0 177 8.5t131 29.5l2 538h196l5 -533q58 -22 116 -32.5t127 -10.5h90v-234h-90z" />
    <glyph glyph-name="uni066E.fina" unicode="&#x66e;" horiz-adv-x="1862" 
d="M1556 507q9 -130 32.5 -192.5t74.5 -86.5t154 -24h90v-234h-90q-110 0 -196.5 42t-143.5 117q-72 -56 -219 -98.5t-312.5 -65t-290.5 -22.5q-214 0 -330.5 60.5t-158.5 166t-42 262.5q0 87 13 250h188q-1 -35 -5 -91q-5 -72 -5 -122q0 -100 29.5 -161.5t116.5 -96
t253 -34.5q163 0 366 27t302 56l-62 503l215 32z" />
    <glyph glyph-name="uni066F.fina" unicode="&#x66f;" horiz-adv-x="1684" 
d="M129 155q6 79 25 251h182q-31 -249 -31 -356q0 -265 333 -265q141 0 318.5 24.5t331.5 74.5l10 114q-186 -22 -278 -22q-176 0 -259 89t-83 272q0 227 73.5 368t238.5 141q231 0 354.5 -164.5t129.5 -477.5h255v-234h-267q-29 -200 -153 -271q-80 -46 -204.5 -82
t-260.5 -55.5t-250 -19.5q-233 0 -352 120.5t-119 356.5q0 57 6 136zM1294 199q-4 147 -37 241.5t-103 142t-184 47.5h-106q-14 -98 -19 -151.5t-5 -98.5q0 -66 20.5 -105.5t66 -57.5t122.5 -18h245z" />
    <glyph glyph-name="uni067C.init" unicode="&#x67c;" horiz-adv-x="744" 
d="M317 977l-168 153l168 153l167 -152l166 151l168 -153l-168 -153l-167 152zM629 921q9 -135 16.5 -308.5t7.5 -272.5q0 -98 -60 -175t-169 -126q25 -36 25 -83q0 -40 -20.5 -74t-54.5 -54.5t-73 -20.5q-41 0 -76 20t-55.5 54t-20.5 73l1 20q-45 -4 -105 -4h-90v234h90
q135 0 242.5 19.5t171.5 56.5l-59 592zM347 11q-65 -19 -119 -27q-5 -13 -5 -26q0 -31 22 -53.5t52 -22.5t52.5 22.5t22.5 53.5t-25 53z" />
    <glyph glyph-name="uni067C.medi" unicode="&#x67c;" horiz-adv-x="844" 
d="M314 915l-168 153l168 153l167 -152l166 151l168 -153l-168 -153l-167 152zM889 204v-234h-90q-88 0 -185 27.5t-161 70.5l-12 -8q22 -21 34 -49t12 -59q0 -40 -20.5 -74t-54.5 -54.5t-73 -20.5q-41 0 -76 20t-55.5 54t-20.5 73q0 14 3 29q-68 -9 -145 -9h-90v234h90
q107 0 177 8.5t131 29.5l2 538h196l5 -533q58 -22 116 -32.5t127 -10.5h90zM396.5 -5.5q-13.5 18.5 -35.5 26.5q-39 -16 -88 -27q-12 -18 -12 -40q0 -31 22 -53.5t52 -22.5t52.5 22.5t22.5 53.5q0 22 -13.5 40.5z" />
    <glyph glyph-name="uni067C.fina" unicode="&#x67c;" horiz-adv-x="1862" 
d="M635 788l-168 153l168 153l167 -152l166 151l168 -153l-168 -153l-167 152zM1907 204v-234h-90q-110 0 -196.5 42t-143.5 117q-67 -52 -200 -92.5t-286 -64t-282 -28.5q9 -24 9 -50q0 -40 -20.5 -74t-54.5 -54.5t-73 -20.5q-41 0 -76 20t-55.5 54t-20.5 73t18 73
q-123 29 -191.5 94t-94.5 156.5t-26 217.5q0 87 13 249h188q-1 -35 -5 -91q-5 -72 -5 -122q0 -100 29.5 -161.5t116.5 -96t253 -34.5q163 0 366 27t302 56l-62 503l215 32l21 -288q9 -130 32.5 -192.5t74.5 -86.5t154 -24h90zM618.5 -157.5q22.5 22.5 22.5 53.5q0 28 -19 47
q-51 1 -104 8q-26 -23 -26 -55q0 -31 22 -53.5t52 -22.5t52.5 22.5z" />
    <glyph glyph-name="uni0681.init" unicode="&#x681;" horiz-adv-x="1423" 
d="M180 204q144 0 249 40t184 104.5t203 188.5l45 45l-97 33q-153 53 -224.5 74t-116.5 21q-37 0 -77.5 -32t-117.5 -112l-80 197q67 69 114 107t88 54t87 16q34 0 69.5 -7.5t98.5 -29t201 -72.5q133 -49 186.5 -65t107.5 -21.5t190 -9.5l-34 -244l-237 15
q-196 -230 -320.5 -341t-241.5 -153t-286 -42h-217v234h226zM626 1473q-88 0 -163 -27l41 -194l320 43v-139l-554 -72v138l111 13q-33 119 -33 181q0 57 35.5 100.5t97 67.5t136.5 24q57 0 113 -13v-131q-54 9 -104 9z" />
    <glyph glyph-name="uni0681.medi" unicode="&#x681;" horiz-adv-x="1444" 
d="M1444 -30q-115 0 -187 34t-143 119t-204 284l-62 -66q-116 -126 -200 -199t-202.5 -122.5t-274.5 -49.5h-214v234h223q138 0 239 37t176 96.5t195 175.5l71 69q-194 69 -289 98.5t-149 29.5q-38 0 -79 -34t-109 -112l-87 198q66 69 113.5 107t88.5 54.5t87 16.5
q34 0 69.5 -7.5t98.5 -29t201 -72.5q133 -49 187 -65t108 -21.5t191 -9.5l-35 -245l-211 9q84 -130 136 -189.5t109.5 -82.5t152.5 -23h45v-234h-45zM566 1460q-88 0 -163 -27l41 -194l320 43v-139l-554 -72v138l111 13q-33 119 -33 181q0 57 35.5 100.5t97 67.5t136.5 24
q57 0 113 -13v-131q-54 9 -104 9z" />
    <glyph glyph-name="uni0681.fina" unicode="&#x681;" horiz-adv-x="1392" 
d="M162.5 237q50.5 137 139 226t197.5 106l378 59q-235 94 -312.5 124t-106.5 37.5t-60 7.5q-32 0 -56.5 -11t-53 -40t-72.5 -86l-81 201q70 84 136.5 121.5t138.5 37.5q55 0 118 -19.5t132 -52t184 -92.5l87 -44q93 -47 129.5 -62.5t70 -21t115.5 -10.5l-48 -251l-173 -23
q66 -98 110.5 -147.5t92.5 -71t118 -21.5h90v-234h-90q-98 0 -183 54.5t-161 149.5t-163 238l-442 -75q-85 -185 -85 -321q0 -148 101.5 -228.5t303.5 -80.5q100 0 216.5 17t253.5 47v-227q-130 -47 -258 -71.5t-245 -24.5q-181 0 -309 58t-195.5 169t-67.5 268t50.5 294z
M612 1547q-88 0 -163 -27l41 -194l320 43v-139l-554 -72v138l111 13q-33 119 -33 181q0 57 35.5 100.5t97 67.5t136.5 24q57 0 113 -13v-131q-54 9 -104 9z" />
    <glyph glyph-name="uni0685.init" unicode="&#x685;" horiz-adv-x="1423" 
d="M515 1306l-170 171l170 171l171 -171zM347 1011l-170 171l170 171l168 -168l164 164l171 -171l-171 -171l-168 168zM992.5 766q53.5 -16 107.5 -21.5t190 -9.5l-34 -244l-237 15q-196 -230 -320.5 -341t-241.5 -153t-286 -42h-217v234h226q144 0 249 40t184 104.5
t203 188.5l45 45l-97 33q-153 53 -224.5 74t-116.5 21q-37 0 -77.5 -32t-117.5 -112l-80 197q67 69 114 107t88 54t87 16q34 0 69.5 -7.5t98.5 -29t201 -72.5q133 -49 186.5 -65z" />
    <glyph glyph-name="uni0685.medi" unicode="&#x685;" horiz-adv-x="1444" 
d="M455 1293l-170 171l170 171l171 -171zM287 998l-170 171l170 171l168 -168l164 164l171 -171l-171 -171l-168 168zM1489 204v-234h-45q-115 0 -187 34t-143 119t-204 284l-62 -66q-116 -126 -200 -199t-202.5 -122.5t-274.5 -49.5h-214v234h223q138 0 239 37t176 96.5
t195 175.5l71 69q-194 69 -289 98.5t-149 29.5q-38 0 -79 -34t-109 -112l-87 198q66 69 113.5 107t88.5 54.5t87 16.5q34 0 69.5 -7.5t98.5 -29t201 -72.5q133 -49 187 -65t108 -21.5t191 -9.5l-35 -245l-211 9q84 -130 136 -189.5t109.5 -82.5t152.5 -23h45z" />
    <glyph glyph-name="uni0685.fina" unicode="&#x685;" horiz-adv-x="1392" 
d="M501 1380l-170 171l170 171l171 -171zM333 1085l-170 171l170 171l168 -168l164 164l171 -171l-171 -171l-168 168zM1436 204v-234h-90q-98 0 -183 54.5t-161 149.5t-163 238l-442 -75q-85 -185 -85 -321q0 -148 101.5 -228.5t303.5 -80.5q100 0 216.5 17t253.5 47v-227
q-130 -47 -258 -71.5t-245 -24.5q-181 0 -309 58t-195.5 169t-67.5 268t50.5 294t139 226t197.5 106l378 59q-235 94 -312.5 124t-106.5 37.5t-60 7.5q-32 0 -56.5 -11t-53 -40t-72.5 -86l-81 201q70 84 136.5 121.5t138.5 37.5q55 0 118 -19.5t132 -52t184 -92.5l87 -44
q93 -47 129.5 -62.5t70 -21t115.5 -10.5l-48 -251l-173 -23q66 -98 110.5 -147.5t92.5 -71t118 -21.5h90z" />
    <glyph glyph-name="uni0689.fina" unicode="&#x689;" horiz-adv-x="1335" 
d="M1379 204v-234h-89q-188 0 -317 116q-122 -111 -325 -140q21 -21 33 -48.5t12 -58.5q0 -40 -20.5 -74t-54.5 -54.5t-73 -20.5q-41 0 -76 20t-55.5 54t-20.5 73q0 29 10 55t28 46q-116 7 -182.5 40t-96 100t-29.5 179l1 215h189v-273q65 -24 203 -24q99 0 200.5 13
t159.5 33l-110 704l217 57l48 -518q9 -97 26.5 -148.5t70.5 -81.5t162 -30h89zM593.5 -212.5q22.5 22.5 22.5 53.5q0 29 -22 50.5t-53 21.5t-52.5 -21t-21.5 -51q0 -31 22 -53.5t52 -22.5t52.5 22.5z" />
    <glyph glyph-name="uni0693.fina" unicode="&#x693;" horiz-adv-x="1032" 
d="M1076 204v-234h-89q-153 0 -264 54q-53 -199 -176 -325q50 -12 82.5 -52.5t32.5 -93.5q0 -40 -20.5 -74t-54.5 -54.5t-73 -20.5q-41 0 -76 20t-55.5 54t-20.5 73q0 7 2 25q-87 -36 -188 -36q-83 0 -176 26v227q75 -11 128 -11q156 0 267.5 77.5t182.5 239.5l-100 640
l228 55l49 -590h321zM563 -394.5q-22 21.5 -53 21.5t-52.5 -21t-21.5 -51q0 -31 22 -53.5t52 -22.5t52.5 22.5t22.5 53.5q0 29 -22 50.5z" />
    <glyph glyph-name="uni0695.fina" unicode="&#x695;" horiz-adv-x="1032" 
d="M987 -30q-153 0 -264 54q-39 -146 -118 -255.5t-189.5 -169t-239.5 -59.5q-83 0 -176 26v227q75 -11 128 -11q156 0 267.5 77.5t182.5 239.5l-100 640l228 55l49 -590h321v-234h-89zM136 -784l95 -241l94 239l117 -43l-130 -300h-162l-131 301z" />
    <glyph glyph-name="uni0696.fina" unicode="&#x696;" horiz-adv-x="1032" 
d="M987 -30q-153 0 -264 54q-39 -146 -118 -255.5t-189.5 -169t-239.5 -59.5q-83 0 -176 26v227q75 -11 128 -11q156 0 267.5 77.5t182.5 239.5l-100 640l228 55l49 -590h321v-234h-89zM674 -287l184 -185l-184 -184l-184 184zM208 240l184 -185l-184 -184l-184 184z" />
    <glyph glyph-name="uni069A.init" unicode="&#x69a;" horiz-adv-x="1915" 
d="M1824 286q0 -100 -45.5 -173t-124 -111.5t-175.5 -38.5q-72 0 -150.5 27t-156.5 77q-62 -49 -153.5 -76t-191.5 -27q-102 0 -199 24t-168 69q-62 -42 -170.5 -64.5t-244.5 -22.5h-90v234l416 1v547h198l5 -533q97 -29 259 -29q146 0 249 23v539h198l5 -539q37 -11 96 -17
t124 -6q78 0 128 7l-37 680l228 33v-624zM1162 1358l184 -185l-184 -184l-184 184zM1250 -160l184 -185l-184 -184l-184 184z" />
    <glyph glyph-name="uni069A.medi" unicode="&#x69a;" horiz-adv-x="2101" 
d="M371 205v548h198l5 -534q49 -14 118.5 -21.5t145.5 -7.5q70 0 134.5 6t109.5 17v540h198l5 -540q37 -11 96 -17t124 -6q78 0 128 7l-24 556l226 35v-583l309 -1v-234h-88q-79 0 -158 21.5t-141 56.5q-54 -42 -124 -64t-146 -22q-84 0 -165.5 26.5t-149.5 78.5
q-63 -47 -155 -75t-190 -28q-102 0 -199 24t-168 69q-62 -41 -171 -64t-244 -23h-91v234zM1189 1322l184 -185l-184 -184l-184 184zM1171 -208l184 -185l-184 -184l-184 184z" />
    <glyph glyph-name="uni069A.fina" unicode="&#x69a;" horiz-adv-x="2811" 
d="M311.5 167q-6.5 -68 -6.5 -117q0 -133 75.5 -194.5t239.5 -61.5q104 0 223 26.5t243 77.5l-35 853l228 34v-569q102 -11 200 -11q97 0 180.5 9t133.5 25l1 512h196l5 -507q52 -22 128.5 -32.5t161.5 -10.5l49 1l-24 548l226 36v-582h321v-234h-91q-82 0 -156 17.5
t-133 50.5q-43 -36 -108 -54.5t-143 -18.5q-85 0 -176.5 27.5t-168.5 75.5q-67 -44 -180.5 -73t-239.5 -29q-48 0 -99 7.5t-90 19.5q-8 -99 -34.5 -163.5t-80 -109t-145.5 -78.5q-116 -44 -229 -67.5t-207 -23.5q-224 0 -338.5 118t-114.5 350q0 53 6 120t30 268h182
q-23 -172 -29.5 -240zM1899 1322l184 -185l-184 -184l-184 184zM2068 -160l184 -185l-184 -184l-184 184z" />
    <glyph glyph-name="uni06A1.init" unicode="&#x6a1;" horiz-adv-x="1012" 
d="M855 175q-65 -114 -239.5 -159.5t-530.5 -45.5h-129l-1 234h90h57q221 0 381 7.5t254 34.5l6 96l-45 -5q-81 -8 -127.5 -12t-104.5 -4q-185 0 -275 83.5t-90 257.5q0 252 70 392t248 140q159 0 271.5 -79t171 -230.5t58.5 -366.5q0 -229 -65 -343zM750 544
q-7 207 -108 312.5t-287 105.5h-72q-12 -88 -16.5 -144.5t-4.5 -112.5q0 -61 22 -95.5t72.5 -50t139.5 -15.5h254z" />
    <glyph glyph-name="uni06A1.medi" unicode="&#x6a1;" horiz-adv-x="952" 
d="M-45 204l232 1q-40 54 -65.5 127t-25.5 141q0 137 63 254t165 186t213 69q115 0 186.5 -54t105.5 -174t34 -319v-231h134v-234h-90q-84 0 -205 20t-220 63q-94 -44 -208.5 -63.5t-228.5 -19.5h-90v234zM669 405q0 125 -17.5 200t-56 109.5t-103.5 34.5q-47 0 -100.5 -26
t-91 -82t-37.5 -140q0 -141 113 -217.5t293 -86.5v208z" />
    <glyph glyph-name="uni06A1.fina" unicode="&#x6a1;" horiz-adv-x="1824" 
d="M320 586q-6 -88 -6 -124q0 -107 55.5 -171.5t171 -93.5t302.5 -29q112 0 268 18q-64 45 -95 117t-31 160q0 121 55.5 242t152.5 199t216 78q123 0 194 -60.5t102 -186t31 -330.5v-201h133v-234h-90q-89 0 -193.5 18t-192.5 48q-143 -42 -319.5 -72t-310.5 -30
q-229 0 -369 51t-205.5 159.5t-65.5 286.5q0 90 13 248h189q-1 -35 -5 -93zM1199 341.5q48 -60.5 137.5 -98.5t209.5 -41v203q0 125 -18 200t-57.5 109.5t-106.5 34.5q-52 0 -101.5 -39t-80.5 -102.5t-31 -134.5t48 -131.5z" />
    <glyph glyph-name="uni06AB.init" unicode="&#x6ab;" horiz-adv-x="895" 
d="M887 1134q12 -28 12 -59q0 -40 -20.5 -74t-54.5 -54.5t-73 -20.5q-41 0 -76 20t-55.5 54t-20.5 73q0 21 6 42l-384 -63l231 -93q159 -64 210.5 -107t65 -137.5t15.5 -372.5q-4 -158 -92 -239t-234 -107t-372 -26h-90v234h90q176 0 287.5 8t224.5 35v222q0 127 -5.5 167.5
t-30 59.5t-101.5 48l-386 142l68 348l772 157l-21 -208q22 -21 34 -49zM799.5 1023.5q22.5 22.5 22.5 53.5q0 21 -12.5 39.5t-32.5 26.5l-80 -13q-24 -21 -24 -53q0 -31 22 -53.5t52 -22.5t52.5 22.5z" />
    <glyph glyph-name="uni06AB.medi" unicode="&#x6ab;" horiz-adv-x="1042" 
d="M1087 204v-234h-90q-104 0 -199.5 29.5t-167.5 84.5q-81 -62 -215.5 -88t-369.5 -26h-90v234h90q176 0 287.5 8t224.5 35v222q0 94 -12 145.5t-40.5 80.5t-84.5 49l-386 142l68 348l771 157l-16 -169q44 -16 71.5 -54.5t27.5 -86.5q0 -40 -20.5 -74t-54.5 -54.5
t-73 -20.5q-41 0 -76 20t-55.5 54t-20.5 73q0 22 7 45l-442 -72l231 -93q130 -52 187 -100.5t78.5 -133.5t24.5 -262q1 -49 1 -259h344zM864.5 1124.5q-14.5 18.5 -36.5 26.5l-70 -11q-13 -10 -20.5 -25t-7.5 -32q0 -31 22 -53.5t52 -22.5t52.5 22.5t22.5 53.5
q0 23 -14.5 41.5z" />
    <glyph glyph-name="uni06AB.fina" unicode="&#x6ab;" horiz-adv-x="1877" 
d="M1923 204v-234h-91q-110 0 -195 24t-156 76q-159 -55 -382.5 -91t-443.5 -36q-274 0 -403 118.5t-129 369.5q0 102 12 249h189l-3 -62q-7 -101 -7 -156q0 -104 39.5 -166t126.5 -90.5t234 -28.5q183 0 376.5 27.5t304.5 58.5v206q0 94 -12 145.5t-41.5 80t-87.5 49.5
l-390 142l70 348l764 157l-9 -185q37 -19 60 -55.5t23 -79.5q0 -40 -20.5 -74t-54.5 -54.5t-73 -20.5q-41 0 -76 20t-55.5 54t-20.5 73q0 28 9 53l-426 -70l231 -93q145 -58 200.5 -108t73 -152t17.5 -348l1 -105q46 -20 112 -31t142 -11h91zM1672.5 1019.5
q22.5 22.5 22.5 53.5q0 28 -21 49t-50 23l-32 -5q-21 -8 -33.5 -26.5t-12.5 -40.5q0 -31 22 -53.5t52 -22.5t52.5 22.5z" />
    <glyph glyph-name="uni06B5.init" unicode="&#x6b5;" horiz-adv-x="589" 
d="M497 392q1 -215 -111 -318.5t-341 -103.5h-90v234h90q72 0 151 18t113 43l-46 1044l231 36zM289 1831l95 -241l94 239l117 -43l-130 -300h-162l-131 301z" />
    <glyph glyph-name="uni06B5.medi" unicode="&#x6b5;" horiz-adv-x="889" 
d="M565 246q102 -42 279 -42h90v-234h-90q-99 0 -204 30t-189 77q-72 -46 -183 -76.5t-223 -30.5h-90v234h90q105 0 195.5 8.5t140.5 27.5l-50 1076l232 28zM351 1828l95 -241l94 239l117 -43l-130 -300h-162l-131 301z" />
    <glyph glyph-name="uni06B5.fina" unicode="&#x6b5;" horiz-adv-x="1561" 
d="M1271 247q59 -25 113.5 -34t131.5 -9h90v-234h-90q-143 0 -245 58v-119q-5 -138 -127 -218t-279.5 -110t-288.5 -30q-224 0 -338.5 118t-114.5 350q0 56 6 133.5t26 252.5h182q-20 -154 -26 -230t-6 -125q0 -133 75.5 -194.5t239.5 -61.5q113 0 237 20t239 58l-59 1442
l232 28zM563 1125l95 -241l94 239l117 -43l-130 -300h-162l-131 301z" />
    <glyph glyph-name="uni06BC.init" unicode="&#x6bc;" horiz-adv-x="744" 
d="M472 1025l-184 184l184 185l184 -185zM629 921q9 -135 16.5 -308.5t7.5 -272.5q0 -98 -60 -175t-169 -126q25 -36 25 -83q0 -40 -20.5 -74t-54.5 -54.5t-73 -20.5q-41 0 -76 20t-55.5 54t-20.5 73l1 20q-45 -4 -105 -4h-90v234h90q135 0 242.5 19.5t171.5 56.5l-59 592z
M347 11q-65 -19 -119 -27q-5 -13 -5 -26q0 -31 22 -53.5t52 -22.5t52.5 22.5t22.5 53.5t-25 53z" />
    <glyph glyph-name="uni06BC.medi" unicode="&#x6bc;" horiz-adv-x="844" 
d="M469 963l-184 184l184 185l184 -185zM889 204v-234h-90q-88 0 -185 27.5t-161 70.5l-12 -8q22 -21 34 -49t12 -59q0 -40 -20.5 -74t-54.5 -54.5t-73 -20.5q-41 0 -76 20t-55.5 54t-20.5 73q0 14 3 29q-68 -9 -145 -9h-90v234h90q107 0 177 8.5t131 29.5l2 538h196l5 -533
q58 -22 116 -32.5t127 -10.5h90zM396.5 -5.5q-13.5 18.5 -35.5 26.5q-39 -16 -88 -27q-12 -18 -12 -40q0 -31 22 -53.5t52 -22.5t52.5 22.5t22.5 53.5q0 22 -13.5 40.5z" />
    <glyph glyph-name="uni06BC.fina" unicode="&#x6bc;" horiz-adv-x="1605" 
d="M600 761l-184 184l184 185l184 -185zM1650 204v-234h-90q-78 0 -148.5 15t-122.5 41v-80q0 -137 -130.5 -225.5t-296.5 -129t-268 -40.5q-36 0 -71 3q11 -28 11 -57q0 -40 -20.5 -74t-54.5 -54.5t-73 -20.5q-41 0 -76 20t-55.5 54t-20.5 73q0 37 17.5 70t46.5 54
q-175 108 -175 390q0 59 6 143t25 254h182q-31 -249 -31 -356q0 -256 333 -256q121 0 257 35.5t245 96.5l-100 799l210 66l41 -556q54 -13 133.5 -22t135.5 -9h90zM434.5 -554.5q22.5 22.5 22.5 53.5q0 29 -22 50.5t-53 21.5t-52.5 -21t-21.5 -51q0 -31 22 -53.5t52 -22.5
t52.5 22.5z" />
    <glyph glyph-name="uni06C2.init" unicode="&#x6c2;" horiz-adv-x="744" 
d="M45 204q135 0 242.5 19.5t171.5 56.5l-59 592l229 49q9 -135 16.5 -308.5t7.5 -272.5q0 -111 -76.5 -194.5t-214 -129.5t-317.5 -46h-90v234h90zM229 -573l123 -32l-82 -232q-117 30 -167.5 75.5t-50.5 122.5q0 36 23.5 111.5t84.5 247.5l38 109l145 -51zM574 1398
q-88 0 -163 -27l41 -194l320 43v-139l-554 -72v138l111 13q-33 119 -33 181q0 57 35.5 100.5t97 67.5t136.5 24q57 0 113 -13v-131q-54 9 -104 9z" />
    <glyph glyph-name="uni06C2.medi" unicode="&#x6c2;" horiz-adv-x="1297" 
d="M211 879q48 4 128 14q103 11 173 17t131 6q148 0 226.5 -50.5t78.5 -180.5v-247q0 -121 -58.5 -221t-176.5 -161.5t-288 -66.5q42 -103 147.5 -165.5t255.5 -78.5q0 174 44.5 273t145.5 142.5t278 43.5h46v-234h-325v-442q-660 -10 -781 442h-281v234h256v675zM750 690
h-331v-494q128 2 199 20t101.5 57.5t30.5 109.5v307zM662 1399q-88 0 -163 -27l41 -194l320 43v-139l-554 -72v138l111 13q-33 119 -33 181q0 57 35.5 100.5t97 67.5t136.5 24q57 0 113 -13v-131q-54 9 -104 9z" />
    <glyph glyph-name="uni06C2.fina" unicode="&#x6c2;" horiz-adv-x="1274" 
d="M906 52q-159 82 -352 262l-348 -370l-83 179l466 475l122 -112q124 -117 192 -170.5t145 -82.5t181 -29h90v-234h-90q-164 0 -323 82zM691 1092q-88 0 -163 -27l41 -194l320 43v-139l-554 -72v138l111 13q-33 119 -33 181q0 57 35.5 100.5t97 67.5t136.5 24q57 0 113 -13
v-131q-54 9 -104 9z" />
    <glyph glyph-name="uni06C3.fina" unicode="&#x6c3;" horiz-adv-x="1221" 
d="M375.5 688.5q-30.5 18.5 -48.5 50t-18 69.5q0 35 18 64.5t49 47t67 17.5t67 -18t49 -48.5t18 -65.5q0 -37 -18 -68t-49 -49t-67 -18q-37 0 -67.5 18.5zM674.5 688q-30.5 18 -48.5 49t-18 67t18 66.5t48.5 48.5t66.5 18q37 0 68 -18t49.5 -48.5t18.5 -66.5t-18.5 -67
t-49.5 -49t-68 -18q-36 0 -66.5 18zM906 52q-159 82 -352 262l-348 -370l-83 179l466 475l122 -112q124 -117 192 -170.5t145 -82.5t181 -29h90v-234h-90q-164 0 -323 82z" />
    <glyph glyph-name="uni06C4.fina" unicode="&#x6c4;" horiz-adv-x="1191" 
d="M1236 204v-234h-304q-23 -150 -86.5 -243t-170.5 -136t-266 -43q-118 0 -262 21v146h-12q-40 0 -74.5 20.5t-55 54t-20.5 72.5q0 41 20 76t54.5 55.5t75.5 20.5t75.5 -20t54.5 -54.5t20 -75.5q0 -40 -20 -74h66q104 0 187 11t154.5 54t88.5 131q-134 -17 -267 -17
q-130 0 -208.5 37.5t-114.5 116.5t-36 207q0 203 24.5 324.5t101.5 189.5t230 68q225 0 338 -174t117 -534h290zM750 203q-2 185 -30.5 287t-90.5 145t-172 43q-38 0 -68 -3t-71 -11q-14 -140 -14 -279q0 -72 19.5 -110.5t66 -55t134.5 -16.5h226zM185.5 -187.5
q22.5 22.5 22.5 53.5q0 29 -22 50.5t-53 21.5t-52.5 -21t-21.5 -51q0 -31 22 -53.5t52 -22.5t52.5 22.5z" />
    <glyph glyph-name="uni06CA.fina" unicode="&#x6ca;" horiz-adv-x="1191" 
d="M387 1026l-168 153l168 153l167 -152l166 151l168 -153l-168 -153l-167 152zM1236 204v-234h-304q-23 -150 -86.5 -243t-170.5 -136t-266 -43q-118 0 -262 21v221h184q104 0 187 11t154.5 54t88.5 131q-134 -17 -267 -17q-130 0 -208.5 37.5t-114.5 116.5t-36 207
q0 203 24.5 324.5t101.5 189.5t230 68q225 0 338 -174t117 -534h290zM750 203q-2 185 -30.5 287t-90.5 145t-172 43q-38 0 -68 -3t-71 -11q-14 -140 -14 -279q0 -72 19.5 -110.5t66 -55t134.5 -16.5h226z" />
    <glyph glyph-name="uni06CD.fina" unicode="&#x6cd;" horiz-adv-x="1723" 
d="M218 495h425l-16 -71q-35 -157 -48 -230t-13 -135q0 -157 91.5 -234t278.5 -77q110 0 250 19t263 51v172h-411l50 214h680v-234h-154q-1 -94 -12 -153.5t-41 -104t-88 -77.5q-91 -52 -254.5 -86.5t-321.5 -34.5q-178 0 -291 54.5t-167.5 168t-54.5 291.5q0 92 26 232
l-228 -6z" />
    <glyph glyph-name="uni06CE.init" unicode="&#x6ce;" horiz-adv-x="764" 
d="M622 146.5q-81 -83.5 -230 -130t-347 -46.5h-120v234h120q160 0 279.5 20t184.5 56l-61 621l228 50q9 -92 18 -295t9 -316q0 -110 -81 -193.5zM472 -238l168 -153l-168 -153l-166 151l-165 -150l-168 153l168 153l166 -151zM419 1389l95 -241l94 239l117 -43l-130 -300
h-162l-131 301z" />
    <glyph glyph-name="uni06CE.medi" unicode="&#x6ce;" horiz-adv-x="844" 
d="M889 204v-234h-90q-88 0 -185 27.5t-161 70.5q-79 -50 -178.5 -74t-229.5 -24h-90v234h90q107 0 177 8.5t131 29.5l2 538h196l5 -533q58 -22 116 -32.5t127 -10.5h90zM590 -252l168 -153l-168 -153l-166 151l-165 -150l-168 153l168 153l166 -151zM350 1267l95 -241
l94 239l117 -43l-130 -300h-162l-131 301z" />
    <glyph glyph-name="uni06CE.fina" unicode="&#x6ce;" horiz-adv-x="1456" 
d="M313 207q-14 -87 -14 -148q0 -157 91.5 -234t278.5 -77q109 0 244 19t259 51v172h-400l50 214h679v-234h-164q-1 -98 -9.5 -154.5t-36 -99.5t-85.5 -76q-92 -53 -256 -89.5t-320 -36.5q-178 0 -291 54.5t-167.5 168t-54.5 291.5q0 152 61 438h183q-34 -172 -48 -259z
M662 761l95 -241l94 239l117 -43l-130 -300h-162l-131 301z" />
    <glyph glyph-name="uni06D5.fina" unicode="&#x6d5;" horiz-adv-x="1218" 
d="M921 395q0 -191 252 -191h90v-234h-90q-134 0 -231 56t-147 165l-57 -124l-594 2l-9 147q-6 89 -6 162q0 194 49 296t163.5 158t352.5 113l-6 165l232 29zM742 302l-24 416l-47 -13q-169 -45 -239.5 -74t-103.5 -81t-33 -155q0 -46 4 -93h443z" />
    <glyph glyph-name="uni06EE.fina" unicode="&#x6ee;" horiz-adv-x="1335" 
d="M1290 -30q-188 0 -317 116q-78 -72 -197 -111t-272 -39q-146 0 -228 30t-117.5 99t-35.5 192l1 215h189v-273q65 -24 203 -24q99 0 200.5 13t159.5 33l-110 704l217 57l48 -518q9 -97 26.5 -148.5t70.5 -81.5t162 -30h89v-234h-89zM776 1523h162l130 -300l-117 -43
l-94 239l-95 -241l-117 44z" />
    <glyph glyph-name="uniFB50" unicode="&#x671;" horiz-adv-x="448" arabic-form="isolated" 
d="M357 0h-186l-48 1175l232 26zM-40 1485l84 -79q68 109 144 162t164 53q80 0 121 -41t41 -121v-208h-198q-109 0 -171.5 7t-103.5 25t-81 54l-82 -101l-40 117zM220 1363q42 -2 105 -2h88l-1 129q-29 11 -82 11t-103.5 -34t-84.5 -94q36 -8 78 -10z" />
    <glyph glyph-name="uniFB51" unicode="&#x671;" horiz-adv-x="644" arabic-form="final" 
d="M17 1486l84 -79q68 109 144 162t164 53q80 0 121 -41t41 -121v-208h-198q-109 0 -171.5 7t-103.5 25t-81 54l-82 -101l-40 117zM277 1364q42 -2 105 -2h88l-1 129q-29 11 -82 11t-103.5 -34t-84.5 -94q36 -8 78 -10zM599 -30q-227 0 -336.5 102.5t-115.5 319.5l-22 763
l229 36v-914q38 -34 102.5 -53t142.5 -19h91l-2 -235h-89z" />
    <glyph glyph-name="uniFB56" unicode="&#x67e;" horiz-adv-x="1646" arabic-form="isolated" 
d="M1547.5 648.5q7.5 -175.5 7.5 -263.5q0 -95 -21 -158t-74 -108.5t-151 -78.5q-128 -43 -311 -70t-343 -27q-214 0 -330.5 60t-158.5 165t-42 262q0 88 13 251h188q-1 -35 -5 -91q-5 -73 -5 -122q0 -99 30 -161t116.5 -96t252.5 -34q107 0 237 14t243 34t173 37l-60 611
l225 52q8 -101 15.5 -276.5zM926 -206l162 -156l-162 -156l-160 154l-161 -155l-163 156l163 156l159 -154zM767 -483l162 -156l-162 -156l-163 156z" />
    <glyph glyph-name="uniFB57" unicode="&#x67e;" horiz-adv-x="1862" arabic-form="final" 
d="M1907 204v-234h-90q-110 0 -196.5 42t-143.5 117q-72 -56 -219 -98.5t-312.5 -65t-290.5 -22.5q-214 0 -330.5 60.5t-158.5 166t-42 262.5q0 87 13 250h188q-1 -35 -5 -91q-5 -72 -5 -122q0 -100 29.5 -161.5t116.5 -96t253 -34.5q163 0 366 27t302 56l-62 503l215 32
l21 -288q9 -130 32.5 -192.5t74.5 -86.5t154 -24h90zM928 -215l162 -156l-162 -156l-160 154l-161 -155l-163 156l163 156l159 -154zM769 -492l162 -156l-162 -156l-163 156z" />
    <glyph glyph-name="uniFB58" unicode="&#x67e;" horiz-adv-x="744" arabic-form="initial" 
d="M622 146.5q-81 -83.5 -230 -130t-347 -46.5h-120v234h120q160 0 279.5 20t184.5 56l-61 621l228 50q9 -92 18 -295t9 -316q0 -110 -81 -193.5zM466 -242l162 -156l-162 -156l-160 154l-161 -155l-163 156l163 156l159 -154zM307 -519l162 -156l-162 -156l-163 156z" />
    <glyph glyph-name="uniFB59" unicode="&#x67e;" horiz-adv-x="844" arabic-form="medial" 
d="M889 204v-234h-90q-88 0 -185 27.5t-161 70.5q-79 -50 -178.5 -74t-229.5 -24h-90v234h90q107 0 177 8.5t131 29.5l2 538h196l5 -533q58 -22 116 -32.5t127 -10.5h90zM584 -256l162 -156l-162 -156l-160 154l-161 -155l-163 156l163 156l159 -154zM425 -533l162 -156
l-162 -156l-163 156z" />
    <glyph glyph-name="uniFB66" unicode="&#x679;" horiz-adv-x="1646" arabic-form="isolated" 
d="M1547.5 648.5q7.5 -175.5 7.5 -263.5q0 -95 -21 -158t-74 -108.5t-151 -78.5q-128 -43 -311 -70t-343 -27q-214 0 -330.5 60t-158.5 165t-42 262q0 88 13 251h188q-1 -35 -5 -91q-5 -73 -5 -122q0 -99 30 -161t116.5 -96t252.5 -34q107 0 237 14t243 34t173 37l-60 611
l225 52q8 -101 15.5 -276.5zM568 896q28 54 37 79.5t9 67.5q0 40 -11 158l119 27v-171q39 38 83.5 57.5t87.5 19.5q66 0 109.5 -42t43.5 -116v-193h-533l-15 113h70zM955 893l-1 111q-28 6 -58 6q-70 0 -135 -31t-103 -86h297z" />
    <glyph glyph-name="uniFB67" unicode="&#x679;" horiz-adv-x="1862" arabic-form="final" 
d="M1556 507q9 -130 32.5 -192.5t74.5 -86.5t154 -24h90v-234h-90q-110 0 -196.5 42t-143.5 117q-72 -56 -219 -98.5t-312.5 -65t-290.5 -22.5q-214 0 -330.5 60.5t-158.5 166t-42 262.5q0 87 13 250h188q-1 -35 -5 -91q-5 -72 -5 -122q0 -100 29.5 -161.5t116.5 -96
t253 -34.5q163 0 366 27t302 56l-62 503l215 32zM594 910q28 54 37 79.5t9 67.5q0 40 -11 158l119 27v-171q39 38 83.5 57.5t87.5 19.5q66 0 109.5 -42t43.5 -116v-193h-533l-15 113h70zM981 907l-1 111q-28 6 -58 6q-70 0 -135 -31t-103 -86h297z" />
    <glyph glyph-name="uniFB68" unicode="&#x679;" horiz-adv-x="744" arabic-form="initial" 
d="M45 204q135 0 242.5 19.5t171.5 56.5l-59 592l229 49q9 -135 16.5 -308.5t7.5 -272.5q0 -111 -76.5 -194.5t-214 -129.5t-317.5 -46h-90v234h90zM276 1099q28 54 37 79.5t9 67.5q0 40 -11 158l119 27v-171q39 38 83.5 57.5t87.5 19.5q66 0 109.5 -42t43.5 -116v-193h-533
l-15 113h70zM663 1096l-1 111q-28 6 -58 6q-70 0 -135 -31t-103 -86h297z" />
    <glyph glyph-name="uniFB69" unicode="&#x679;" horiz-adv-x="844" arabic-form="medial" 
d="M799 -30q-88 0 -185 27.5t-161 70.5q-79 -50 -178.5 -74t-229.5 -24h-90v234h90q107 0 177 8.5t131 29.5l2 538h196l5 -533q58 -22 116 -32.5t127 -10.5h90v-234h-90zM273 1037q28 54 37 79.5t9 67.5q0 40 -11 158l119 27v-171q39 38 83.5 57.5t87.5 19.5q66 0 109.5 -42
t43.5 -116v-193h-533l-15 113h70zM660 1034l-1 111q-28 6 -58 6q-70 0 -135 -31t-103 -86h297z" />
    <glyph glyph-name="uniFB6A" unicode="&#x6a4;" horiz-adv-x="1816" arabic-form="isolated" 
d="M1263 1479l-170 171l170 171l171 -171zM1095 1184l-170 171l170 171l168 -168l164 164l171 -171l-171 -171l-168 168zM1601 964.5q124 -172.5 124 -500.5q0 -164 -44.5 -264.5t-145 -157.5t-276.5 -85q-121 -19 -254.5 -30t-241.5 -11q-220 0 -361 53t-210 163t-69 281
q0 110 9 249h189q-7 -97 -7 -218q0 -104 52.5 -168.5t164 -95t291.5 -30.5q154 0 354.5 13.5t359.5 47.5l10 67q-167 -11 -275 -11q-176 0 -258.5 88.5t-82.5 271.5q0 145 32.5 260t102 182.5t176.5 67.5q236 0 360 -172.5zM1545 490q-5 215 -87.5 316.5t-263.5 101.5h-59
q-35 -155 -35 -236q0 -93 46 -137.5t155 -44.5h244z" />
    <glyph glyph-name="uniFB6B" unicode="&#x6a4;" horiz-adv-x="1824" arabic-form="final" 
d="M1377 1357l-170 171l170 171l171 -171zM1209 1062l-170 171l170 171l168 -168l164 164l171 -171l-171 -171l-168 168zM1869 204v-234h-90q-89 0 -193.5 18t-192.5 48q-143 -42 -319.5 -72t-310.5 -30q-229 0 -369 51t-205.5 159.5t-65.5 286.5q0 90 13 248h189
q-1 -35 -5 -93q-6 -88 -6 -124q0 -107 55.5 -171.5t171 -93.5t302.5 -29q112 0 268 18q-64 45 -95 117t-31 160q0 121 55.5 242t152.5 199t216 78q123 0 194 -60.5t102 -186t31 -330.5v-201h133zM1546 405q0 125 -18 200t-57.5 109.5t-106.5 34.5q-52 0 -101.5 -39
t-80.5 -102.5t-31 -134.5t48 -131.5t137.5 -98.5t209.5 -41v203z" />
    <glyph glyph-name="uniFB6C" unicode="&#x6a4;" horiz-adv-x="1012" arabic-form="initial" 
d="M405 1545l-170 171l170 171l171 -171zM237 1250l-170 171l170 171l168 -168l164 164l171 -171l-171 -171l-168 168zM690.5 1115q112.5 -79 171 -230.5t58.5 -366.5q0 -229 -65 -343t-239.5 -159.5t-530.5 -45.5h-129l-1 234h90h57q221 0 381 7.5t254 34.5l6 96l-45 -5
q-81 -8 -127.5 -12t-104.5 -4q-185 0 -275 83.5t-90 257.5q0 252 70 392t248 140q159 0 271.5 -79zM750 544q-7 207 -108 312.5t-287 105.5h-72q-12 -88 -16.5 -144.5t-4.5 -112.5q0 -61 22 -95.5t72.5 -50t139.5 -15.5h254z" />
    <glyph glyph-name="uniFB6D" unicode="&#x6a4;" horiz-adv-x="952" arabic-form="medial" 
d="M490 1380l-170 171l170 171l171 -171zM322 1085l-170 171l170 171l168 -168l164 164l171 -171l-171 -171l-168 168zM997 204v-234h-90q-84 0 -205 20t-220 63q-94 -44 -208.5 -63.5t-228.5 -19.5h-90v234l232 1q-40 54 -65.5 127t-25.5 141q0 137 63 254t165 186t213 69
q115 0 186.5 -54t105.5 -174t34 -319v-231h134zM669 405q0 125 -17.5 200t-56 109.5t-103.5 34.5q-47 0 -100.5 -26t-91 -82t-37.5 -140q0 -141 113 -217.5t293 -86.5v208z" />
    <glyph glyph-name="uniFB7A" unicode="&#x686;" horiz-adv-x="1371" arabic-form="isolated" 
d="M418.5 -213q106.5 -80 298.5 -80q100 0 216.5 17t253.5 47v-227q-130 -47 -258 -71.5t-245 -24.5q-275 0 -423.5 125.5t-148.5 369.5q0 157 50.5 294t139 226t197.5 106l378 59q-235 94 -312.5 124t-106.5 37.5t-60 7.5q-32 0 -56.5 -11t-53 -40t-72.5 -86l-81 201
q70 84 136.5 121.5t138.5 37.5q55 0 118 -19.5t132 -52t184 -92.5l87 -44q93 -47 128 -62.5t63.5 -21t93.5 -10.5l-42 -251l-786 -120q-40 -87 -58 -173.5t-18 -161.5q0 -145 106.5 -225zM1072 163l-147 -146l-144 143l-143 -142l-147 146l147 148l144 -145l143 144zM784 53
l147 -148l-147 -146l-147 146z" />
    <glyph glyph-name="uniFB7B" unicode="&#x686;" horiz-adv-x="1392" arabic-form="final" 
d="M1436 204v-234h-90q-98 0 -183 54.5t-161 149.5t-163 238l-442 -75q-85 -185 -85 -321q0 -148 101.5 -228.5t303.5 -80.5q100 0 216.5 17t253.5 47v-227q-130 -47 -258 -71.5t-245 -24.5q-181 0 -309 58t-195.5 169t-67.5 268t50.5 294t139 226t197.5 106l378 59
q-235 94 -312.5 124t-106.5 37.5t-60 7.5q-32 0 -56.5 -11t-53 -40t-72.5 -86l-81 201q70 84 136.5 121.5t138.5 37.5q55 0 118 -19.5t132 -52t184 -92.5l87 -44q93 -47 129.5 -62.5t70 -21t115.5 -10.5l-48 -251l-173 -23q66 -98 110.5 -147.5t92.5 -71t118 -21.5h90z
M935 119l-127 -127l-125 125l-124 -124l-127 127l127 128l125 -126l124 125zM685 24l127 -128l-127 -127l-127 127z" />
    <glyph glyph-name="uniFB7C" unicode="&#x686;" horiz-adv-x="1423" arabic-form="initial" 
d="M992.5 766q53.5 -16 107.5 -21.5t190 -9.5l-34 -244l-237 15q-196 -230 -320.5 -341t-241.5 -153t-286 -42h-217v234h226q144 0 249 40t184 104.5t203 188.5l45 45l-97 33q-153 53 -224.5 74t-116.5 21q-37 0 -77.5 -32t-117.5 -112l-80 197q67 69 114 107t88 54t87 16
q34 0 69.5 -7.5t98.5 -29t201 -72.5q133 -49 186.5 -65zM758 -112l162 -156l-162 -156l-160 154l-161 -155l-163 156l163 156l159 -154zM599 -389l162 -156l-162 -156l-163 156z" />
    <glyph glyph-name="uniFB7D" unicode="&#x686;" horiz-adv-x="1444" arabic-form="medial" 
d="M1489 204v-234h-45q-115 0 -187 34t-143 119t-204 284l-62 -66q-116 -126 -200 -199t-202.5 -122.5t-274.5 -49.5h-214v234h223q138 0 239 37t176 96.5t195 175.5l71 69q-194 69 -289 98.5t-149 29.5q-38 0 -79 -34t-109 -112l-87 198q66 69 113.5 107t88.5 54.5t87 16.5
q34 0 69.5 -7.5t98.5 -29t201 -72.5q133 -49 187 -65t108 -21.5t191 -9.5l-35 -245l-211 9q84 -130 136 -189.5t109.5 -82.5t152.5 -23h45zM994 17l162 -156l-162 -156l-160 154l-161 -155l-163 156l163 156l159 -154zM835 -260l162 -156l-162 -156l-163 156z" />
    <glyph glyph-name="uniFB86" unicode="&#x68e;" horiz-adv-x="1127" arabic-form="isolated" 
d="M708 1429l-170 171l170 171l171 -171zM540 1134l-170 171l170 171l168 -168l164 164l171 -171l-171 -171l-168 168zM737 1027q141 -152 219.5 -351t78.5 -405q0 -165 -137.5 -252.5t-393.5 -87.5q-146 0 -227.5 30t-117.5 99.5t-36 192.5l1 213h189v-271q67 -27 200 -27
q94 0 190.5 13.5t156.5 35.5q-5 164 -76 323t-195 294z" />
    <glyph glyph-name="uniFB87" unicode="&#x68e;" horiz-adv-x="1335" arabic-form="final" 
d="M854 1401l-170 171l170 171l171 -171zM686 1106l-170 171l170 171l168 -168l164 164l171 -171l-171 -171l-168 168zM1379 204v-234h-89q-188 0 -317 116q-78 -72 -197 -111t-272 -39q-146 0 -228 30t-117.5 99t-35.5 192l1 215h189v-273q65 -24 203 -24q99 0 200.5 13
t159.5 33l-110 704l217 57l48 -518q9 -97 26.5 -148.5t70.5 -81.5t162 -30h89z" />
    <glyph glyph-name="uniFB88" unicode="&#x688;" horiz-adv-x="1127" arabic-form="isolated" 
d="M313 195q67 -27 200 -27q94 0 190.5 13.5t156.5 35.5q-5 164 -76 323t-195 294l148 193q141 -152 219.5 -351t78.5 -405q0 -165 -137.5 -252.5t-393.5 -87.5q-146 0 -227.5 30t-117.5 99.5t-36 192.5l1 213h189v-271zM521 1297q28 54 37 79.5t9 67.5q0 40 -11 158l119 27
v-171q39 38 83.5 57.5t87.5 19.5q66 0 109.5 -42t43.5 -116v-193h-533l-15 113h70zM908 1294l-1 111q-28 6 -58 6q-70 0 -135 -31t-103 -86h297z" />
    <glyph glyph-name="uniFB89" unicode="&#x688;" horiz-adv-x="1335" arabic-form="final" 
d="M1290 -30q-188 0 -317 116q-78 -72 -197 -111t-272 -39q-146 0 -228 30t-117.5 99t-35.5 192l1 215h189v-273q65 -24 203 -24q99 0 200.5 13t159.5 33l-110 704l217 57l48 -518q9 -97 26.5 -148.5t70.5 -81.5t162 -30h89v-234h-89zM667 1269q28 54 37 79.5t9 67.5
q0 40 -11 158l119 27v-171q39 38 83.5 57.5t87.5 19.5q66 0 109.5 -42t43.5 -116v-193h-533l-15 113h70zM1054 1266l-1 111q-28 6 -58 6q-70 0 -135 -31t-103 -86h297z" />
    <glyph glyph-name="uniFB8A" unicode="&#x698;" horiz-adv-x="833" arabic-form="isolated" 
d="M576 1226l-170 171l170 171l171 -171zM408 931l-170 171l170 171l168 -168l164 164l171 -171l-171 -171l-168 168zM705 796q36 -372 36 -629q0 -178 -75 -321t-205 -224.5t-286 -81.5q-88 0 -175 26v227q71 -11 127 -11q158 0 269.5 78.5t181.5 238.5l-100 640z" />
    <glyph glyph-name="uniFB8B" unicode="&#x698;" horiz-adv-x="1032" arabic-form="final" 
d="M588 1220l-170 171l170 171l171 -171zM420 925l-170 171l170 171l168 -168l164 164l171 -171l-171 -171l-168 168zM1076 204v-234h-89q-153 0 -264 54q-39 -146 -118 -255.5t-189.5 -169t-239.5 -59.5q-83 0 -176 26v227q75 -11 128 -11q156 0 267.5 77.5t182.5 239.5
l-100 640l228 55l49 -590h321z" />
    <glyph glyph-name="uniFB8C" unicode="&#x691;" horiz-adv-x="833" arabic-form="isolated" 
d="M741 167q0 -178 -75 -321t-205 -224.5t-286 -81.5q-88 0 -175 26v227q71 -11 127 -11q158 0 269.5 78.5t181.5 238.5l-100 640l227 57q36 -372 36 -629zM389 1094q28 54 37 79.5t9 67.5q0 40 -11 158l119 27v-171q39 38 83.5 57.5t87.5 19.5q66 0 109.5 -42t43.5 -116
v-193h-533l-15 113h70zM776 1091l-1 111q-28 6 -58 6q-70 0 -135 -31t-103 -86h297z" />
    <glyph glyph-name="uniFB8D" unicode="&#x691;" horiz-adv-x="1032" arabic-form="final" 
d="M987 -30q-153 0 -264 54q-39 -146 -118 -255.5t-189.5 -169t-239.5 -59.5q-83 0 -176 26v227q75 -11 128 -11q156 0 267.5 77.5t182.5 239.5l-100 640l228 55l49 -590h321v-234h-89zM401 1088q28 54 37 79.5t9 67.5q0 40 -11 158l119 27v-171q39 38 83.5 57.5t87.5 19.5
q66 0 109.5 -42t43.5 -116v-193h-533l-15 113h70zM788 1085l-1 111q-28 6 -58 6q-70 0 -135 -31t-103 -86h297z" />
    <glyph glyph-name="uniFB8E" unicode="&#x6a9;" horiz-adv-x="1710" arabic-form="isolated" 
d="M319 616q-1 -27 -3 -78t-2 -76q0 -104 39.5 -166t126.5 -90.5t234 -28.5q324 0 666 70v222q0 95 -11 146t-39 79.5t-86 49.5l-390 142l70 348l764 157l-12 -236l-631 -103l231 -93q145 -58 200.5 -108t73 -152t17.5 -348q0 -100 -21 -161t-71 -98.5t-140 -61.5
q-134 -35 -330.5 -61t-349.5 -26q-274 0 -403 118.5t-129 369.5q0 110 10 250h189z" />
    <glyph glyph-name="uniFB8F" unicode="&#x6a9;" horiz-adv-x="1877" arabic-form="final" 
d="M1395 469q0 94 -12 145.5t-41.5 80t-87.5 49.5l-390 142l70 348l764 157l-12 -236l-631 -103l231 -93q145 -58 200.5 -108t73 -152t17.5 -348l1 -105q46 -20 112 -31t142 -11h91v-234h-91q-110 0 -195 24t-156 76q-159 -55 -382.5 -91t-443.5 -36q-274 0 -403 118.5
t-129 369.5q0 102 12 249h189l-3 -62q-7 -101 -7 -156q0 -104 39.5 -166t126.5 -90.5t234 -28.5q183 0 376.5 27.5t304.5 58.5v206z" />
    <glyph glyph-name="uniFB90" unicode="&#x6a9;" horiz-adv-x="895" arabic-form="initial" 
d="M-45 -30v234h90q176 0 287.5 8t224.5 35v222q0 127 -5.5 167.5t-30 59.5t-101.5 48l-386 142l68 348l772 157l-24 -236l-629 -103l231 -93q159 -64 210.5 -107t65 -137.5t15.5 -372.5q-4 -158 -92 -239t-234 -107t-372 -26h-90z" />
    <glyph glyph-name="uniFB91" unicode="&#x6a9;" horiz-adv-x="1042" arabic-form="medial" 
d="M-45 204h90q176 0 287.5 8t224.5 35v222q0 94 -12 145.5t-40.5 80.5t-84.5 49l-386 142l68 348l771 157l-22 -236l-630 -103l231 -93q130 -52 187 -100.5t78.5 -133.5t24.5 -262q1 -49 1 -259h344v-234h-90q-104 0 -199.5 29.5t-167.5 84.5q-81 -62 -215.5 -88
t-369.5 -26h-90v234z" />
    <glyph glyph-name="uniFB92" unicode="&#x6af;" horiz-adv-x="1709" arabic-form="isolated" 
d="M956 1207l37 184l617 136l-14 -180zM319 596q-5 -83 -5 -134q0 -104 39.5 -166t126.5 -90.5t234 -28.5q184 0 359 22.5t310 53.5v106q0 97 -11.5 157t-42 96t-87.5 52l-372 106l71 358l745 153l-12 -236l-631 -103l231 -63q126 -34 187 -88t82 -148t23 -274
q0 -101 -21 -166.5t-71.5 -107t-138.5 -65.5q-134 -35 -330.5 -61t-349.5 -26q-274 0 -403 118.5t-129 369.5q0 115 11 249h189z" />
    <glyph glyph-name="uniFB93" unicode="&#x6af;" horiz-adv-x="1877" arabic-form="final" 
d="M968 1207l37 184l617 136l-14 -180zM1698 1281l-12 -236l-631 -103l231 -63q132 -36 193 -94t80 -160.5t19 -309.5v-110l345 -1v-234h-91q-110 0 -195 24t-156 76q-159 -55 -382.5 -91t-443.5 -36q-274 0 -403 118.5t-129 369.5q0 102 12 249h189l-3 -62q-7 -101 -7 -156
q0 -104 39.5 -166t126.5 -90.5t234 -28.5q169 0 306 14.5t334 45.5l41 6v116q0 97 -11.5 157t-42 96t-87.5 52l-372 106l71 358z" />
    <glyph glyph-name="uniFB94" unicode="&#x6af;" horiz-adv-x="884" arabic-form="initial" 
d="M132 1207l37 184l617 136l-14 -180zM45 204h68q131 0 242.5 11t203.5 46v98q0 115 -11.5 173t-40.5 86.5t-89 45.5l-372 106l71 358l745 153l-12 -236l-631 -103l231 -63q128 -35 188.5 -90.5t81 -151.5t22.5 -281q-3 -172 -108 -257t-248.5 -107t-340.5 -22h-87v234h87z
" />
    <glyph glyph-name="uniFB95" unicode="&#x6af;" horiz-adv-x="1042" arabic-form="medial" 
d="M132 1207l37 184l617 136l-14 -180zM559 359q0 97 -11.5 157t-42 96t-87.5 52l-372 106l71 358l745 153l-12 -236l-631 -103l231 -63q133 -36 194 -94t79.5 -160t18.5 -310l1 -111h344v-234h-90q-114 0 -202.5 28.5t-163.5 85.5q-83 -58 -226 -86t-360 -28h-90v234h90h46
q138 0 254.5 11t213.5 48v96z" />
    <glyph glyph-name="uniFB9F" unicode="&#x6ba;" horiz-adv-x="1605" arabic-form="final" 
d="M1560 -30q-78 0 -148.5 15t-122.5 41v-80q0 -137 -130.5 -225.5t-296.5 -129t-268 -40.5q-237 0 -354 112.5t-117 345.5q0 59 6 143t25 254h182q-31 -249 -31 -356q0 -256 333 -256q121 0 257 35.5t245 96.5l-100 799l210 66l41 -556q54 -13 133.5 -22t135.5 -9h90v-234
h-90z" />
    <glyph glyph-name="uniFBA4" unicode="&#x6c0;" horiz-adv-x="1019" arabic-form="isolated" 
d="M399 1449.5q-47 -21.5 -61 -39t-20 -52.5h256q73 0 110.5 -17.5t52.5 -62t15 -131.5q0 -74 -34.5 -110.5t-126 -51.5t-279.5 -17l-96 -1v152h437l-3 88h-431q-2 150 19 221t82.5 115t209.5 101l38 -127q-122 -46 -169 -67.5zM276.5 -77q-74.5 49 -116 138t-41.5 205
q0 252 218 627q223 -90 340.5 -154t180.5 -151.5t63 -220.5q0 -121 -68.5 -235.5t-178 -186t-226.5 -71.5q-97 0 -171.5 49zM723.5 412.5q-39.5 51.5 -100 84.5t-169.5 78l-77 32q-41 -65 -71 -142t-30 -150q0 -57 23.5 -101t67 -69t101.5 -25q74 0 159 46.5t137 117.5
q-1 77 -40.5 128.5z" />
    <glyph glyph-name="uniFBA5" unicode="&#x6c0;" horiz-adv-x="1218" arabic-form="final" 
d="M672.5 1660q-46.5 -21 -64 -40.5t-21.5 -53.5h256q73 0 110.5 -17.5t52.5 -62t15 -131.5q0 -69 -26.5 -104.5t-120 -54t-293.5 -20.5l-96 -1v152h437l-3 88h-431v31q0 133 21.5 199t83.5 108.5t206 98.5l38 -127q-118 -44 -164.5 -65zM921 395q0 -191 252 -191h90v-234
h-90q-134 0 -231 56t-147 165l-57 -124l-594 2l-9 147q-6 89 -6 162q0 194 49 296t163.5 158t352.5 113l-6 165l232 29zM742 302l-24 416l-47 -13q-169 -45 -239.5 -74t-103.5 -81t-33 -155q0 -46 4 -93h443z" />
    <glyph glyph-name="uniFBA6" unicode="&#x6c1;" horiz-adv-x="1019" arabic-form="isolated" 
d="M276.5 -77q-74.5 49 -116 138t-41.5 205q0 252 218 627q223 -90 340.5 -154t180.5 -151.5t63 -220.5q0 -121 -68.5 -235.5t-178 -186t-226.5 -71.5q-97 0 -171.5 49zM723.5 412.5q-39.5 51.5 -100 84.5t-169.5 78l-77 32q-41 -65 -71 -142t-30 -150q0 -57 23.5 -101
t67 -69t101.5 -25q74 0 159 46.5t137 117.5q-1 77 -40.5 128.5z" />
    <glyph glyph-name="uniFBA7" unicode="&#x6c1;" horiz-adv-x="1274" arabic-form="final" 
d="M906 52q-159 82 -352 262l-348 -370l-83 179l466 475l122 -112q124 -117 192 -170.5t145 -82.5t181 -29h90v-234h-90q-164 0 -323 82z" />
    <glyph glyph-name="uniFBA8" unicode="&#x6c1;" horiz-adv-x="744" arabic-form="initial" 
d="M45 204q135 0 242.5 19.5t171.5 56.5l-59 592l229 49q9 -135 16.5 -308.5t7.5 -272.5q0 -111 -76.5 -194.5t-214 -129.5t-317.5 -46h-90v234h90zM229 -573l123 -32l-82 -232q-117 30 -167.5 75.5t-50.5 122.5q0 36 23.5 111.5t84.5 247.5l38 109l145 -51z" />
    <glyph glyph-name="uniFBA9" unicode="&#x6c1;" horiz-adv-x="1297" arabic-form="medial" 
d="M211 879q48 4 128 14q103 11 173 17t131 6q148 0 226.5 -50.5t78.5 -180.5v-247q0 -121 -58.5 -221t-176.5 -161.5t-288 -66.5q42 -103 147.5 -165.5t255.5 -78.5q0 174 44.5 273t145.5 142.5t278 43.5h46v-234h-325v-442q-660 -10 -781 442h-281v234h256v675zM750 690
h-331v-494q128 2 199 20t101.5 57.5t30.5 109.5v307z" />
    <glyph glyph-name="uniFBAA" unicode="&#x6be;" horiz-adv-x="1324" arabic-form="isolated" 
d="M474 24q-155 21 -253 104.5t-98 277.5q0 111 54.5 215.5t145 174.5t191.5 82l62 131q278 -135 403 -211t189 -171.5t64 -244.5q0 -67 -12 -140.5t-56 -278.5l-481 49l-43 -159h-217zM327.5 352q32.5 -41 91 -66t133.5 -31l90 390q-59 28 -116 28q-58 0 -111.5 -32
t-86.5 -85t-33 -112q0 -51 32.5 -92zM1057.5 294.5q4.5 34.5 4.5 65.5q0 66 -18.5 107t-65 78t-146.5 95l-84 -405l296 -30q9 55 13.5 89.5z" />
    <glyph glyph-name="uniFBAB" unicode="&#x6be;" horiz-adv-x="1415" arabic-form="final" 
d="M1460 -30h-90q-169 0 -338.5 13t-322.5 61l-46 -194h-236l63 209q-110 4 -193 53.5t-128.5 137.5t-45.5 204q0 108 56 211t148.5 171.5t195.5 79.5l62 132q266 -130 401.5 -215.5t204 -188t68.5 -251.5q0 -79 -20 -190l221 1v-234zM333 376q38 -47 97.5 -76t121.5 -28
l90 404q-60 28 -116 28q-58 0 -111.5 -32t-86.5 -85t-33 -113q0 -51 38 -98zM1079 372q0 65 -19.5 111.5t-70 92t-148.5 103.5l-85 -420q129 -43 305 -53q18 104 18 166z" />
    <glyph glyph-name="uniFBAC" unicode="&#x6be;" horiz-adv-x="1442" arabic-form="initial" 
d="M-44 204h361q-96 46 -150.5 142.5t-54.5 213.5q0 113 43.5 209.5t126.5 165t197 99.5l30 140q340 -111 497.5 -177.5t247 -166t89.5 -259.5q0 -25 -1 -38l-23 -374h-712q-124 -101 -253 -145t-309 -44h-89v234zM1166 353l8 145l1 23q0 80 -36 135.5t-113 99.5t-213 93
l-8 -495zM637 836q-31 8 -70 8q-89 0 -154 -35.5t-98 -92.5t-33 -120q0 -59 29.5 -110t89 -82.5t144.5 -31.5q45 0 92 9v455z" />
    <glyph glyph-name="uniFBAD" unicode="&#x6be;" horiz-adv-x="1432" arabic-form="medial" 
d="M1479 -30h-92q-235 0 -421 33t-390 120q-246 -153 -531 -153h-88v234l342 -1q-70 49 -105 121.5t-35 156.5q0 105 52 205t145.5 166t213.5 73l55 111q265 -129 395 -212t193.5 -182.5t63.5 -248.5q0 -79 -21 -190l223 1v-234zM680 705q-28 17 -62 26t-66 9
q-59 0 -109.5 -32.5t-80.5 -86t-30 -112.5q0 -52 31.5 -96t87.5 -70t125 -26q30 0 39 1zM762 256q59 -23 136.5 -34t179.5 -16q18 104 18 166q0 64 -25 114.5t-81 98t-155 106.5z" />
    <glyph glyph-name="uniFBAE" unicode="&#x6d2;" horiz-adv-x="1617" arabic-form="isolated" 
d="M740 589q-33 -78 -78 -125.5t-90 -71t-109 -46.5q-59 -22 -92 -40.5t-56 -54.5t-28 -98l1213 -1l-32 -233h-1335q-8 185 -8 213q0 130 39.5 208t96 116t149.5 78q55 23 89 40.5t65 44t50 63.5q36 69 73.5 99.5t83.5 30.5q41 0 92 -21t133 -66l-69 -237z" />
    <glyph glyph-name="uniFBAF" unicode="&#x6d2;" horiz-adv-x="1322" arabic-form="final" 
d="M1367 -30v234h-90q-69 0 -123 28.5t-92 68t-88 102.5q-35 46 -58.5 72t-51 43t-57.5 17q-47 0 -79.5 -31t-64.5 -109q-18 -44 -51 -78t-71 -57.5t-102 -57.5q-105 -55 -169.5 -105t-110 -141.5t-45.5 -235.5v-169h1338l20 236l-1208 1q9 44 35 75t59.5 51t93.5 50
q82 40 138.5 77t111 104.5t89.5 170.5q106 -145 174 -216t138.5 -100.5t173.5 -29.5h90z" />
    <glyph glyph-name="uniFBB0" unicode="&#x6d3;" horiz-adv-x="1617" arabic-form="isolated" 
d="M740 589q-33 -78 -78 -125.5t-90 -71t-109 -46.5q-59 -22 -92 -40.5t-56 -54.5t-28 -98l1213 -1l-32 -233h-1335q-8 185 -8 213q0 130 39.5 208t96 116t149.5 78q55 23 89 40.5t65 44t50 63.5q36 69 73.5 99.5t83.5 30.5q41 0 92 -21t133 -66l-69 -237zM791 1308
q-88 0 -163 -27l41 -194l320 43v-139l-554 -72v138l111 13q-33 119 -33 181q0 57 35.5 100.5t97 67.5t136.5 24q57 0 113 -13v-131q-54 9 -104 9z" />
    <glyph glyph-name="uniFBB1" unicode="&#x6d3;" horiz-adv-x="1322" arabic-form="final" 
d="M1367 -30v234h-90q-69 0 -123 28.5t-92 68t-88 102.5q-35 46 -58.5 72t-51 43t-57.5 17q-47 0 -79.5 -31t-64.5 -109q-18 -44 -51 -78t-71 -57.5t-102 -57.5q-105 -55 -169.5 -105t-110 -141.5t-45.5 -235.5v-169h1338l20 236l-1208 1q9 44 35 75t59.5 51t93.5 50
q82 40 138.5 77t111 104.5t89.5 170.5q106 -145 174 -216t138.5 -100.5t173.5 -29.5h90zM861 1028q-88 0 -163 -27l41 -194l320 43v-139l-554 -72v138l111 13q-33 119 -33 181q0 57 35.5 100.5t97 67.5t136.5 24q57 0 113 -13v-131q-54 9 -104 9z" />
    <glyph glyph-name="uniFBD3" unicode="&#x6ad;" horiz-adv-x="1340" arabic-form="isolated" 
d="M614 1192l-170 171l170 171l171 -171zM1153 78q-96 -96 -258.5 -139.5t-366.5 -43.5q-177 0 -375 32v238q210 -28 392 -28q351 0 504 99l-35 1074l232 35l3 -1020q0 -151 -96 -247zM446 897l-170 171l170 171l168 -168l164 164l171 -171l-171 -171l-168 168zM869 701
l-126 -5q33 -106 33 -179q0 -78 -41 -116.5t-129 -39.5l-192 -3v171l234 6l-54 311l275 24v-169z" />
    <glyph glyph-name="uniFBD4" unicode="&#x6ad;" horiz-adv-x="1546" arabic-form="final" 
d="M589 1141l-170 171l170 171l171 -171zM1591 204v-234h-90q-246 0 -361 103q-91 -88 -285 -131t-425 -43q-150 0 -274 16v241q166 -19 322 -19q347 0 571 99l-35 1074l232 35l3 -1103q97 -38 252 -38h90zM421 846l-170 171l170 171l168 -168l164 164l171 -171l-151 -151
l96 8v-169l-126 -5q33 -106 33 -179q0 -78 -41 -116.5t-129 -39.5l-192 -3v171l234 6l-54 311l143 12l-152 152z" />
    <glyph glyph-name="uniFBD5" unicode="&#x6ad;" horiz-adv-x="895" arabic-form="initial" 
d="M337 1642l-170 171l170 171l171 -171zM169 1347l-170 171l170 171l168 -168l164 164l171 -171l-171 -171l-168 168zM850 1155l-629 -103l231 -93q159 -64 210.5 -107t65 -137.5t15.5 -372.5q-4 -158 -92 -239t-234 -107t-372 -26h-90v234h90q176 0 287.5 8t224.5 35v222
q0 127 -5.5 167.5t-30 59.5t-101.5 48l-386 142l68 348l772 157z" />
    <glyph glyph-name="uniFBD6" unicode="&#x6ad;" horiz-adv-x="1042" arabic-form="medial" 
d="M418 1653l-170 171l170 171l171 -171zM250 1358l-170 171l170 171l168 -168l164 164l171 -171l-171 -171l-168 168zM1087 204v-234h-90q-104 0 -199.5 29.5t-167.5 84.5q-81 -62 -215.5 -88t-369.5 -26h-90v234h90q176 0 287.5 8t224.5 35v222q0 94 -12 145.5t-40.5 80.5
t-84.5 49l-386 142l68 348l771 157l-22 -236l-630 -103l231 -93q130 -52 187 -100.5t78.5 -133.5t24.5 -262q1 -49 1 -259h344z" />
    <glyph glyph-name="uniFBD7" unicode="&#x6c7;" horiz-adv-x="1063" arabic-form="isolated" 
d="M331 -210q104 0 187 11t154.5 54t88.5 131q-134 -17 -267 -17q-130 0 -208.5 37.5t-114.5 116.5t-36 207q0 203 24.5 324.5t101.5 189.5t230 68q230 0 342.5 -181.5t112.5 -556.5q0 -226 -56 -363t-173.5 -200t-307.5 -63q-118 0 -262 21v221h184zM323.5 274.5
q19.5 -38.5 66 -55t134.5 -16.5h226q-2 185 -30.5 287t-90.5 145t-172 43q-38 0 -68 -3t-71 -11q-14 -140 -14 -279q0 -72 19.5 -110.5zM613 1276q-51 -17 -97 -17q-67 0 -107.5 35t-40.5 87q0 82 22.5 146.5t62.5 100.5t90 36q55 0 96.5 -34.5t65 -98t23.5 -146.5
q0 -61 -35.5 -147.5t-98.5 -187.5l-119 35zM591.5 1503q-18.5 43 -52.5 43q-61 0 -63 -152q38 -19 78 -19q24 0 56 6q0 79 -18.5 122z" />
    <glyph glyph-name="uniFBD8" unicode="&#x6c7;" horiz-adv-x="1191" arabic-form="final" 
d="M159.5 654.5q24.5 121.5 101.5 189.5t230 68q225 0 338 -174t117 -534h290v-234h-304q-23 -150 -86.5 -243t-170.5 -136t-266 -43q-118 0 -262 21v221h184q104 0 187 11t154.5 54t88.5 131q-134 -17 -267 -17q-130 0 -208.5 37.5t-114.5 116.5t-36 207q0 203 24.5 324.5z
M323.5 274.5q19.5 -38.5 66 -55t134.5 -16.5h226q-2 185 -30.5 287t-90.5 145t-172 43q-38 0 -68 -3t-71 -11q-14 -140 -14 -279q0 -72 19.5 -110.5zM647 1298q-51 -17 -97 -17q-67 0 -107.5 35t-40.5 87q0 82 22.5 146.5t62.5 100.5t90 36q55 0 96.5 -34.5t65 -98
t23.5 -146.5q0 -61 -35.5 -147.5t-98.5 -187.5l-119 35zM625.5 1525q-18.5 43 -52.5 43q-61 0 -63 -152q38 -19 78 -19q24 0 56 6q0 79 -18.5 122z" />
    <glyph glyph-name="uniFBD9" unicode="&#x6c6;" horiz-adv-x="1063" arabic-form="isolated" 
d="M331 -210q104 0 187 11t154.5 54t88.5 131q-134 -17 -267 -17q-130 0 -208.5 37.5t-114.5 116.5t-36 207q0 203 24.5 324.5t101.5 189.5t230 68q230 0 342.5 -181.5t112.5 -556.5q0 -226 -56 -363t-173.5 -200t-307.5 -63q-118 0 -262 21v221h184zM323.5 274.5
q19.5 -38.5 66 -55t134.5 -16.5h226q-2 185 -30.5 287t-90.5 145t-172 43q-38 0 -68 -3t-71 -11q-14 -140 -14 -279q0 -72 19.5 -110.5zM409 1366l95 -241l94 239l117 -43l-130 -300h-162l-131 301z" />
    <glyph glyph-name="uniFBDA" unicode="&#x6c6;" horiz-adv-x="1191" arabic-form="final" 
d="M159.5 654.5q24.5 121.5 101.5 189.5t230 68q225 0 338 -174t117 -534h290v-234h-304q-23 -150 -86.5 -243t-170.5 -136t-266 -43q-118 0 -262 21v221h184q104 0 187 11t154.5 54t88.5 131q-134 -17 -267 -17q-130 0 -208.5 37.5t-114.5 116.5t-36 207q0 203 24.5 324.5z
M323.5 274.5q19.5 -38.5 66 -55t134.5 -16.5h226q-2 185 -30.5 287t-90.5 145t-172 43q-38 0 -68 -3t-71 -11q-14 -140 -14 -279q0 -72 19.5 -110.5zM443 1388l95 -241l94 239l117 -43l-130 -300h-162l-131 301z" />
    <glyph glyph-name="uniFBDB" unicode="&#x6c8;" horiz-adv-x="1063" arabic-form="isolated" 
d="M331 -210q104 0 187 11t154.5 54t88.5 131q-134 -17 -267 -17q-130 0 -208.5 37.5t-114.5 116.5t-36 207q0 203 24.5 324.5t101.5 189.5t230 68q230 0 342.5 -181.5t112.5 -556.5q0 -226 -56 -363t-173.5 -200t-307.5 -63q-118 0 -262 21v221h184zM323.5 274.5
q19.5 -38.5 66 -55t134.5 -16.5h226q-2 185 -30.5 287t-90.5 145t-172 43q-38 0 -68 -3t-71 -11q-14 -140 -14 -279q0 -72 19.5 -110.5zM439 1340l137 23l1 -334l-132 -31z" />
    <glyph glyph-name="uniFBDC" unicode="&#x6c8;" horiz-adv-x="1191" arabic-form="final" 
d="M159.5 654.5q24.5 121.5 101.5 189.5t230 68q225 0 338 -174t117 -534h290v-234h-304q-23 -150 -86.5 -243t-170.5 -136t-266 -43q-118 0 -262 21v221h184q104 0 187 11t154.5 54t88.5 131q-134 -17 -267 -17q-130 0 -208.5 37.5t-114.5 116.5t-36 207q0 203 24.5 324.5z
M323.5 274.5q19.5 -38.5 66 -55t134.5 -16.5h226q-2 185 -30.5 287t-90.5 145t-172 43q-38 0 -68 -3t-71 -11q-14 -140 -14 -279q0 -72 19.5 -110.5zM473 1362l137 23l1 -334l-132 -31z" />
    <glyph glyph-name="uniFBDE" unicode="&#x6cb;" horiz-adv-x="1063" arabic-form="isolated" 
d="M499 1258l-170 171l170 171l171 -171zM331 963l-170 171l170 171l168 -168l164 164l171 -171l-171 -171l-168 168zM833.5 730.5q112.5 -181.5 112.5 -556.5q0 -226 -56 -363t-173.5 -200t-307.5 -63q-118 0 -262 21v221h184q104 0 187 11t154.5 54t88.5 131
q-134 -17 -267 -17q-130 0 -208.5 37.5t-114.5 116.5t-36 207q0 203 24.5 324.5t101.5 189.5t230 68q230 0 342.5 -181.5zM750 203q-2 185 -30.5 287t-90.5 145t-172 43q-38 0 -68 -3t-71 -11q-14 -140 -14 -279q0 -72 19.5 -110.5t66 -55t134.5 -16.5h226z" />
    <glyph glyph-name="uniFBDF" unicode="&#x6cb;" horiz-adv-x="1191" arabic-form="final" 
d="M533 1280l-170 171l170 171l171 -171zM365 985l-170 171l170 171l168 -168l164 164l171 -171l-171 -171l-168 168zM1236 204v-234h-304q-23 -150 -86.5 -243t-170.5 -136t-266 -43q-118 0 -262 21v221h184q104 0 187 11t154.5 54t88.5 131q-134 -17 -267 -17
q-130 0 -208.5 37.5t-114.5 116.5t-36 207q0 203 24.5 324.5t101.5 189.5t230 68q225 0 338 -174t117 -534h290zM750 203q-2 185 -30.5 287t-90.5 145t-172 43q-38 0 -68 -3t-71 -11q-14 -140 -14 -279q0 -72 19.5 -110.5t66 -55t134.5 -16.5h226z" />
    <glyph glyph-name="uniFBE4" unicode="&#x6d0;" horiz-adv-x="1552" arabic-form="isolated" 
d="M980 564.5q-80 -39.5 -101 -85.5t-24 -165h296q114 0 171 -28t80 -99t23 -213q0 -116 -35 -185t-115.5 -112.5t-228.5 -79.5q-111 -27 -220 -41t-195 -14q-266 0 -390 110.5t-124 341.5q0 130 44 423h181q-19 -111 -31.5 -209.5t-12.5 -146.5q0 -103 37 -162.5
t120.5 -86.5t229.5 -27q218 0 573 79v216h-570q0 343 25 463t126 188.5t414 194.5l56 -229q-249 -93 -329 -132.5zM717 -583l162 -156l-162 -156l-163 156zM714 -923l162 -156l-162 -156l-163 156z" />
    <glyph glyph-name="uniFBE5" unicode="&#x6d0;" horiz-adv-x="1456" arabic-form="final" 
d="M313 207q-14 -87 -14 -148q0 -157 91.5 -234t278.5 -77q109 0 244 19t259 51v172h-400l50 214h679v-234h-164q-1 -98 -9.5 -154.5t-36 -99.5t-85.5 -76q-92 -53 -256 -89.5t-320 -36.5q-178 0 -291 54.5t-167.5 168t-54.5 291.5q0 152 61 438h183q-34 -172 -48 -259z
M576 -663l162 -156l-162 -156l-163 156zM573 -1003l162 -156l-162 -156l-163 156z" />
    <glyph glyph-name="uniFBE6" unicode="&#x6d0;" horiz-adv-x="744" arabic-form="initial" 
d="M45 204q135 0 242.5 19.5t171.5 56.5l-59 592l229 49q9 -135 16.5 -308.5t7.5 -272.5q0 -111 -76.5 -194.5t-214 -129.5t-317.5 -46h-90v234h90zM388 -210l162 -156l-162 -156l-163 156zM385 -550l162 -156l-162 -156l-163 156z" />
    <glyph glyph-name="uniFBE7" unicode="&#x6d0;" horiz-adv-x="844" arabic-form="medial" 
d="M799 -30q-88 0 -185 27.5t-161 70.5q-79 -50 -178.5 -74t-229.5 -24h-90v234h90q107 0 177 8.5t131 29.5l2 538h196l5 -533q58 -22 116 -32.5t127 -10.5h90v-234h-90zM427 -226l162 -156l-162 -156l-163 156zM424 -566l162 -156l-162 -156l-163 156z" />
    <glyph glyph-name="uniFBE8" unicode="&#x649;" horiz-adv-x="744" arabic-form="initial" 
d="M45 204q135 0 242.5 19.5t171.5 56.5l-59 592l229 49q9 -135 16.5 -308.5t7.5 -272.5q0 -111 -76.5 -194.5t-214 -129.5t-317.5 -46h-90v234h90z" />
    <glyph glyph-name="uniFBE9" unicode="&#x649;" horiz-adv-x="844" arabic-form="medial" 
d="M799 -30q-88 0 -185 27.5t-161 70.5q-79 -50 -178.5 -74t-229.5 -24h-90v234h90q107 0 177 8.5t131 29.5l2 538h196l5 -533q58 -22 116 -32.5t127 -10.5h90v-234h-90z" />
    <glyph glyph-name="uniFBFC" unicode="&#x6cc;" horiz-adv-x="1552" arabic-form="isolated" 
d="M980 564.5q-80 -39.5 -101 -85.5t-24 -165h296q114 0 171 -28t80 -99t23 -213q0 -116 -35 -185t-115.5 -112.5t-228.5 -79.5q-111 -27 -220 -41t-195 -14q-266 0 -390 110.5t-124 341.5q0 130 44 423h181q-19 -111 -31.5 -209.5t-12.5 -146.5q0 -103 37 -162.5
t120.5 -86.5t229.5 -27q218 0 573 79v216h-570q0 343 25 463t126 188.5t414 194.5l56 -229q-249 -93 -329 -132.5z" />
    <glyph glyph-name="uniFBFD" unicode="&#x6cc;" horiz-adv-x="1456" arabic-form="final" 
d="M313 207q-14 -87 -14 -148q0 -157 91.5 -234t278.5 -77q109 0 244 19t259 51v172h-400l50 214h679v-234h-164q-1 -98 -9.5 -154.5t-36 -99.5t-85.5 -76q-92 -53 -256 -89.5t-320 -36.5q-178 0 -291 54.5t-167.5 168t-54.5 291.5q0 152 61 438h183q-34 -172 -48 -259z" />
    <glyph glyph-name="uniFBFE" unicode="&#x6cc;" horiz-adv-x="764" arabic-form="initial" 
d="M622 146.5q-81 -83.5 -230 -130t-347 -46.5h-120v234h120q160 0 279.5 20t184.5 56l-61 621l228 50q9 -92 18 -295t9 -316q0 -110 -81 -193.5zM472 -238l168 -153l-168 -153l-166 151l-165 -150l-168 153l168 153l166 -151z" />
    <glyph glyph-name="uniFBFF" unicode="&#x6cc;" horiz-adv-x="844" arabic-form="medial" 
d="M889 204v-234h-90q-88 0 -185 27.5t-161 70.5q-79 -50 -178.5 -74t-229.5 -24h-90v234h90q107 0 177 8.5t131 29.5l2 538h196l5 -533q58 -22 116 -32.5t127 -10.5h90zM590 -252l168 -153l-168 -153l-166 151l-165 -150l-168 153l168 153l166 -151z" />
    <glyph glyph-name="uniFE80" unicode="&#x621;" horiz-adv-x="883" arabic-form="isolated" 
d="M524 449q-85 0 -170 -20l52 -220l355 46v-205l-608 -83v208l88 10q-33 68 -47.5 127t-14.5 103q0 81 45 138t121.5 85t170.5 28q89 0 184 -26v-211q-91 20 -176 20z" />
    <glyph glyph-name="uniFE81" unicode="&#x622;" horiz-adv-x="448" arabic-form="isolated" 
d="M357 0h-186l-48 1175l232 26zM299 1331q-118 0 -229 32l-28 -80l-114 43l84 224q91 -25 160 -38t148 -13q107 0 233 28l-8 -164q-128 -32 -246 -32z" />
    <glyph glyph-name="uniFE82" unicode="&#x622;" horiz-adv-x="644" arabic-form="final" 
d="M306 1329q-118 0 -229 32l-28 -80l-114 43l84 224q91 -25 160 -38t148 -13q107 0 233 28l-8 -164q-128 -32 -246 -32zM599 -30q-227 0 -336.5 102.5t-115.5 319.5l-22 763l229 36v-914q38 -34 102.5 -53t142.5 -19h91l-2 -235h-89z" />
    <glyph glyph-name="uniFE83" unicode="&#x623;" horiz-adv-x="448" arabic-form="isolated" 
d="M357 0h-186l-48 1175l232 26zM330 1728q-88 0 -163 -27l41 -194l320 43v-139l-554 -72v138l111 13q-33 119 -33 181q0 57 35.5 100.5t97 67.5t136.5 24q57 0 113 -13v-131q-54 9 -104 9z" />
    <glyph glyph-name="uniFE84" unicode="&#x623;" horiz-adv-x="642" arabic-form="final" 
d="M597 -30q-227 0 -336.5 102.5t-115.5 319.5l-22 763l229 36v-914q38 -34 102.5 -53t142.5 -19h91l-2 -235h-89zM361 1668q-88 0 -163 -27l41 -194l320 43v-139l-554 -72v138l111 13q-33 119 -33 181q0 57 35.5 100.5t97 67.5t136.5 24q57 0 113 -13v-131q-54 9 -104 9z
" />
    <glyph glyph-name="uniFE85" unicode="&#x624;" horiz-adv-x="1063" arabic-form="isolated" 
d="M331 -210q104 0 187 11t154.5 54t88.5 131q-134 -17 -267 -17q-130 0 -208.5 37.5t-114.5 116.5t-36 207q0 203 24.5 324.5t101.5 189.5t230 68q230 0 342.5 -181.5t112.5 -556.5q0 -226 -56 -363t-173.5 -200t-307.5 -63q-118 0 -262 21v221h184zM323.5 274.5
q19.5 -38.5 66 -55t134.5 -16.5h226q-2 185 -30.5 287t-90.5 145t-172 43q-38 0 -68 -3t-71 -11q-14 -140 -14 -279q0 -72 19.5 -110.5zM610 1425q-88 0 -163 -27l41 -194l320 43v-139l-554 -72v138l111 13q-33 119 -33 181q0 57 35.5 100.5t97 67.5t136.5 24q57 0 113 -13
v-131q-54 9 -104 9z" />
    <glyph glyph-name="uniFE86" unicode="&#x624;" horiz-adv-x="1191" arabic-form="final" 
d="M159.5 654.5q24.5 121.5 101.5 189.5t230 68q225 0 338 -174t117 -534h290v-234h-304q-23 -150 -86.5 -243t-170.5 -136t-266 -43q-118 0 -262 21v221h184q104 0 187 11t154.5 54t88.5 131q-134 -17 -267 -17q-130 0 -208.5 37.5t-114.5 116.5t-36 207q0 203 24.5 324.5z
M323.5 274.5q19.5 -38.5 66 -55t134.5 -16.5h226q-2 185 -30.5 287t-90.5 145t-172 43q-38 0 -68 -3t-71 -11q-14 -140 -14 -279q0 -72 19.5 -110.5zM644 1447q-88 0 -163 -27l41 -194l320 43v-139l-554 -72v138l111 13q-33 119 -33 181q0 57 35.5 100.5t97 67.5t136.5 24
q57 0 113 -13v-131q-54 9 -104 9z" />
    <glyph glyph-name="uniFE87" unicode="&#x625;" horiz-adv-x="448" arabic-form="isolated" 
d="M357 0h-186l-48 1316l232 29zM331 -401q-88 0 -163 -27l41 -194l320 43v-139l-554 -72v138l111 13q-33 119 -33 181q0 57 35.5 100.5t97 67.5t136.5 24q57 0 113 -13v-131q-54 9 -104 9z" />
    <glyph glyph-name="uniFE88" unicode="&#x625;" horiz-adv-x="642" arabic-form="final" 
d="M597 -30q-227 0 -337 102.5t-115 319.5l-22 918l229 34v-1067q80 -73 245 -73h90v-234h-90zM520 -399q-88 0 -163 -27l41 -194l320 43v-139l-554 -72v138l111 13q-33 119 -33 181q0 57 35.5 100.5t97 67.5t136.5 24q57 0 113 -13v-131q-54 9 -104 9z" />
    <glyph glyph-name="uniFE89" unicode="&#x626;" horiz-adv-x="1552" arabic-form="isolated" 
d="M980 564.5q-80 -39.5 -101 -85.5t-24 -165h296q114 0 171 -28t80 -99t23 -213q0 -116 -35 -185t-115.5 -112.5t-228.5 -79.5q-111 -27 -220 -41t-195 -14q-266 0 -390 110.5t-124 341.5q0 130 44 423h181q-19 -111 -31.5 -209.5t-12.5 -146.5q0 -103 37 -162.5
t120.5 -86.5t229.5 -27q218 0 573 79v216h-570q0 343 25 463t126 188.5t414 194.5l56 -229q-249 -93 -329 -132.5zM636 1117q-88 0 -163 -27l41 -194l320 43v-139l-554 -72v138l111 13q-33 119 -33 181q0 57 35.5 100.5t97 67.5t136.5 24q57 0 113 -13v-131q-54 9 -104 9z
" />
    <glyph glyph-name="uniFE8A" unicode="&#x626;" horiz-adv-x="1456" arabic-form="final" 
d="M313 207q-14 -87 -14 -148q0 -157 91.5 -234t278.5 -77q109 0 244 19t259 51v172h-400l50 214h679v-234h-164q-1 -98 -9.5 -154.5t-36 -99.5t-85.5 -76q-92 -53 -256 -89.5t-320 -36.5q-178 0 -291 54.5t-167.5 168t-54.5 291.5q0 152 61 438h183q-34 -172 -48 -259z
M863 820q-88 0 -163 -27l41 -194l320 43v-139l-554 -72v138l111 13q-33 119 -33 181q0 57 35.5 100.5t97 67.5t136.5 24q57 0 113 -13v-131q-54 9 -104 9z" />
    <glyph glyph-name="uniFE8B" unicode="&#x626;" horiz-adv-x="744" arabic-form="initial" 
d="M45 204q135 0 242.5 19.5t171.5 56.5l-59 592l229 49q9 -135 16.5 -308.5t7.5 -272.5q0 -111 -76.5 -194.5t-214 -129.5t-317.5 -46h-90v234h90zM574 1398q-88 0 -163 -27l41 -194l320 43v-139l-554 -72v138l111 13q-33 119 -33 181q0 57 35.5 100.5t97 67.5t136.5 24
q57 0 113 -13v-131q-54 9 -104 9z" />
    <glyph glyph-name="uniFE8C" unicode="&#x626;" horiz-adv-x="844" arabic-form="medial" 
d="M799 -30q-88 0 -185 27.5t-161 70.5q-79 -50 -178.5 -74t-229.5 -24h-90v234h90q107 0 177 8.5t131 29.5l2 538h196l5 -533q58 -22 116 -32.5t127 -10.5h90v-234h-90zM571 1336q-88 0 -163 -27l41 -194l320 43v-139l-554 -72v138l111 13q-33 119 -33 181q0 57 35.5 100.5
t97 67.5t136.5 24q57 0 113 -13v-131q-54 9 -104 9z" />
    <glyph glyph-name="uniFE8D" unicode="&#x627;" horiz-adv-x="448" arabic-form="isolated" 
d="M357 0h-186l-48 1316l232 29z" />
    <glyph glyph-name="uniFE8E" unicode="&#x627;" horiz-adv-x="642" arabic-form="final" 
d="M597 -30q-227 0 -337 102.5t-115 319.5l-22 918l229 34v-1067q80 -73 245 -73h90v-234h-90z" />
    <glyph glyph-name="uniFE8F" unicode="&#x628;" horiz-adv-x="1646" arabic-form="isolated" 
d="M1547.5 648.5q7.5 -175.5 7.5 -263.5q0 -95 -21 -158t-74 -108.5t-151 -78.5q-128 -43 -311 -70t-343 -27q-214 0 -330.5 60t-158.5 165t-42 262q0 88 13 251h188q-1 -35 -5 -91q-5 -73 -5 -122q0 -99 30 -161t116.5 -96t252.5 -34q107 0 237 14t243 34t173 37l-60 611
l225 52q8 -101 15.5 -276.5zM770 -204l184 -185l-184 -184l-184 184z" />
    <glyph glyph-name="uniFE90" unicode="&#x628;" horiz-adv-x="1862" arabic-form="final" 
d="M1556 507q9 -130 32.5 -192.5t74.5 -86.5t154 -24h90v-234h-90q-110 0 -196.5 42t-143.5 117q-72 -56 -219 -98.5t-312.5 -65t-290.5 -22.5q-214 0 -330.5 60.5t-158.5 166t-42 262.5q0 87 13 250h188q-1 -35 -5 -91q-5 -72 -5 -122q0 -100 29.5 -161.5t116.5 -96
t253 -34.5q163 0 366 27t302 56l-62 503l215 32zM772 -213l184 -185l-184 -184l-184 184z" />
    <glyph glyph-name="uniFE91" unicode="&#x628;" horiz-adv-x="744" arabic-form="initial" 
d="M45 204q135 0 242.5 19.5t171.5 56.5l-59 592l229 49q9 -135 16.5 -308.5t7.5 -272.5q0 -111 -76.5 -194.5t-214 -129.5t-317.5 -46h-90v234h90zM389 -238l184 -185l-184 -184l-184 184z" />
    <glyph glyph-name="uniFE92" unicode="&#x628;" horiz-adv-x="844" arabic-form="medial" 
d="M799 -30q-88 0 -185 27.5t-161 70.5q-79 -50 -178.5 -74t-229.5 -24h-90v234h90q107 0 177 8.5t131 29.5l2 538h196l5 -533q58 -22 116 -32.5t127 -10.5h90v-234h-90zM428 -254l184 -185l-184 -184l-184 184z" />
    <glyph glyph-name="uniFE93" unicode="&#x629;" horiz-adv-x="1019" arabic-form="isolated" 
d="M210.5 990.5q-30.5 18.5 -48 50t-17.5 68.5q0 35 18 65t48.5 47.5t66.5 17.5q37 0 68 -18t49 -49t18 -68q0 -36 -18.5 -66.5t-49.5 -48t-67 -17.5q-37 0 -67.5 18.5zM510 990q-31 18 -49 48.5t-18 66.5t18 67t49 49t67 18q37 0 68 -18t49 -49t18 -67t-18 -66.5t-49 -48.5
t-68 -18q-36 0 -67 18zM276.5 -77q-74.5 49 -116 138t-41.5 205q0 252 218 627q223 -90 340.5 -154t180.5 -151.5t63 -220.5q0 -121 -68.5 -235.5t-178 -186t-226.5 -71.5q-97 0 -171.5 49zM723.5 412.5q-39.5 51.5 -100 84.5t-169.5 78l-77 32q-41 -65 -71 -142t-30 -150
q0 -57 23.5 -101t67 -69t101.5 -25q74 0 159 46.5t137 117.5q-1 77 -40.5 128.5z" />
    <glyph glyph-name="uniFE94" unicode="&#x629;" horiz-adv-x="1218" arabic-form="final" 
d="M583.5 1218.5q-30.5 18.5 -48.5 50t-18 69.5q0 35 18 64.5t49 47t67 17.5t67 -18t49 -48.5t18 -65.5q0 -37 -18 -68t-49 -49t-67 -18q-37 0 -67.5 18.5zM883 1218q-31 18 -49 49t-18 67t18 66.5t49 48.5t67 18t67 -18t49.5 -48.5t18.5 -66.5t-18.5 -67t-49.5 -49t-67 -18
t-67 18zM921 395q0 -191 252 -191h90v-234h-90q-134 0 -231 56t-147 165l-57 -124l-594 2l-9 147q-6 89 -6 162q0 194 49 296t163.5 158t352.5 113l-6 165l232 29zM742 302l-24 416l-47 -13q-169 -45 -239.5 -74t-103.5 -81t-33 -155q0 -46 4 -93h443z" />
    <glyph glyph-name="uniFE95" unicode="&#x62a;" horiz-adv-x="1646" arabic-form="isolated" 
d="M609 774l-168 153l168 153l167 -152l166 151l168 -153l-168 -153l-167 152zM1547.5 648.5q7.5 -175.5 7.5 -263.5q0 -95 -21 -158t-74 -108.5t-151 -78.5q-128 -43 -311 -70t-343 -27q-214 0 -330.5 60t-158.5 165t-42 262q0 88 13 251h188q-1 -35 -5 -91q-5 -73 -5 -122
q0 -99 30 -161t116.5 -96t252.5 -34q107 0 237 14t243 34t173 37l-60 611l225 52q8 -101 15.5 -276.5z" />
    <glyph glyph-name="uniFE96" unicode="&#x62a;" horiz-adv-x="1862" arabic-form="final" 
d="M635 788l-168 153l168 153l167 -152l166 151l168 -153l-168 -153l-167 152zM1907 204v-234h-90q-110 0 -196.5 42t-143.5 117q-72 -56 -219 -98.5t-312.5 -65t-290.5 -22.5q-214 0 -330.5 60.5t-158.5 166t-42 262.5q0 87 13 250h188q-1 -35 -5 -91q-5 -72 -5 -122
q0 -100 29.5 -161.5t116.5 -96t253 -34.5q163 0 366 27t302 56l-62 503l215 32l21 -288q9 -130 32.5 -192.5t74.5 -86.5t154 -24h90z" />
    <glyph glyph-name="uniFE97" unicode="&#x62a;" horiz-adv-x="744" arabic-form="initial" 
d="M317 977l-168 153l168 153l167 -152l166 151l168 -153l-168 -153l-167 152zM629 921q9 -135 16.5 -308.5t7.5 -272.5q0 -111 -76.5 -194.5t-214 -129.5t-317.5 -46h-90v234h90q135 0 242.5 19.5t171.5 56.5l-59 592z" />
    <glyph glyph-name="uniFE98" unicode="&#x62a;" horiz-adv-x="844" arabic-form="medial" 
d="M314 915l-168 153l168 153l167 -152l166 151l168 -153l-168 -153l-167 152zM889 204v-234h-90q-88 0 -185 27.5t-161 70.5q-79 -50 -178.5 -74t-229.5 -24h-90v234h90q107 0 177 8.5t131 29.5l2 538h196l5 -533q58 -22 116 -32.5t127 -10.5h90z" />
    <glyph glyph-name="uniFE99" unicode="&#x62b;" horiz-adv-x="1646" arabic-form="isolated" 
d="M755 1028l-170 171l170 171l171 -171zM587 733l-170 171l170 171l168 -168l164 164l171 -171l-171 -171l-168 168zM1547.5 648.5q7.5 -175.5 7.5 -263.5q0 -95 -21 -158t-74 -108.5t-151 -78.5q-128 -43 -311 -70t-343 -27q-214 0 -330.5 60t-158.5 165t-42 262
q0 88 13 251h188q-1 -35 -5 -91q-5 -73 -5 -122q0 -99 30 -161t116.5 -96t252.5 -34q107 0 237 14t243 34t173 37l-60 611l225 52q8 -101 15.5 -276.5z" />
    <glyph glyph-name="uniFE9A" unicode="&#x62b;" horiz-adv-x="1862" arabic-form="final" 
d="M781 1042l-170 171l170 171l171 -171zM613 747l-170 171l170 171l168 -168l164 164l171 -171l-171 -171l-168 168zM1907 204v-234h-90q-110 0 -196.5 42t-143.5 117q-72 -56 -219 -98.5t-312.5 -65t-290.5 -22.5q-214 0 -330.5 60.5t-158.5 166t-42 262.5q0 87 13 250
h188q-1 -35 -5 -91q-5 -72 -5 -122q0 -100 29.5 -161.5t116.5 -96t253 -34.5q163 0 366 27t302 56l-62 503l215 32l21 -288q9 -130 32.5 -192.5t74.5 -86.5t154 -24h90z" />
    <glyph glyph-name="uniFE9B" unicode="&#x62b;" horiz-adv-x="744" arabic-form="initial" 
d="M463 1231l-170 171l170 171l171 -171zM295 936l-170 171l170 171l168 -168l164 164l171 -171l-171 -171l-168 168zM629 921q9 -135 16.5 -308.5t7.5 -272.5q0 -111 -76.5 -194.5t-214 -129.5t-317.5 -46h-90v234h90q135 0 242.5 19.5t171.5 56.5l-59 592z" />
    <glyph glyph-name="uniFE9C" unicode="&#x62b;" horiz-adv-x="844" arabic-form="medial" 
d="M460 1169l-170 171l170 171l171 -171zM292 874l-170 171l170 171l168 -168l164 164l171 -171l-171 -171l-168 168zM889 204v-234h-90q-88 0 -185 27.5t-161 70.5q-79 -50 -178.5 -74t-229.5 -24h-90v234h90q107 0 177 8.5t131 29.5l2 538h196l5 -533q58 -22 116 -32.5
t127 -10.5h90z" />
    <glyph glyph-name="uniFE9D" unicode="&#x62c;" horiz-adv-x="1371" arabic-form="isolated" 
d="M330 173.5q-18 -86.5 -18 -161.5q0 -145 106.5 -225t298.5 -80q100 0 216.5 17t253.5 47v-227q-130 -47 -258 -71.5t-245 -24.5q-275 0 -423.5 125.5t-148.5 369.5q0 157 50.5 294t139 226t197.5 106l378 59q-235 94 -312.5 124t-106.5 37.5t-60 7.5q-32 0 -56.5 -11
t-53 -40t-72.5 -86l-81 201q70 84 136.5 121.5t138.5 37.5q55 0 118 -19.5t132 -52t184 -92.5l87 -44q93 -47 128 -62.5t63.5 -21t93.5 -10.5l-42 -251l-786 -120q-40 -87 -58 -173.5zM791 320l184 -185l-184 -184l-184 184z" />
    <glyph glyph-name="uniFE9E" unicode="&#x62c;" horiz-adv-x="1392" arabic-form="final" 
d="M162.5 237q50.5 137 139 226t197.5 106l378 59q-235 94 -312.5 124t-106.5 37.5t-60 7.5q-32 0 -56.5 -11t-53 -40t-72.5 -86l-81 201q70 84 136.5 121.5t138.5 37.5q55 0 118 -19.5t132 -52t184 -92.5l87 -44q93 -47 129.5 -62.5t70 -21t115.5 -10.5l-48 -251l-173 -23
q66 -98 110.5 -147.5t92.5 -71t118 -21.5h90v-234h-90q-98 0 -183 54.5t-161 149.5t-163 238l-442 -75q-85 -185 -85 -321q0 -148 101.5 -228.5t303.5 -80.5q100 0 216.5 17t253.5 47v-227q-130 -47 -258 -71.5t-245 -24.5q-181 0 -309 58t-195.5 169t-67.5 268t50.5 294z
M691 280l184 -185l-184 -184l-184 184z" />
    <glyph glyph-name="uniFE9F" unicode="&#x62c;" horiz-adv-x="1423" arabic-form="initial" 
d="M180 204q144 0 249 40t184 104.5t203 188.5l45 45l-97 33q-153 53 -224.5 74t-116.5 21q-37 0 -77.5 -32t-117.5 -112l-80 197q67 69 114 107t88 54t87 16q34 0 69.5 -7.5t98.5 -29t201 -72.5q133 -49 186.5 -65t107.5 -21.5t190 -9.5l-34 -244l-237 15
q-196 -230 -320.5 -341t-241.5 -153t-286 -42h-217v234h226zM602 -110l184 -185l-184 -184l-184 184z" />
    <glyph glyph-name="uniFEA0" unicode="&#x62c;" horiz-adv-x="1444" arabic-form="medial" 
d="M1444 -30q-115 0 -187 34t-143 119t-204 284l-62 -66q-116 -126 -200 -199t-202.5 -122.5t-274.5 -49.5h-214v234h223q138 0 239 37t176 96.5t195 175.5l71 69q-194 69 -289 98.5t-149 29.5q-38 0 -79 -34t-109 -112l-87 198q66 69 113.5 107t88.5 54.5t87 16.5
q34 0 69.5 -7.5t98.5 -29t201 -72.5q133 -49 187 -65t108 -21.5t191 -9.5l-35 -245l-211 9q84 -130 136 -189.5t109.5 -82.5t152.5 -23h45v-234h-45zM838 19l184 -185l-184 -184l-184 184z" />
    <glyph glyph-name="uniFEA1" unicode="&#x62d;" horiz-adv-x="1371" arabic-form="isolated" 
d="M330 173.5q-18 -86.5 -18 -161.5q0 -145 106.5 -225t298.5 -80q100 0 216.5 17t253.5 47v-227q-130 -47 -258 -71.5t-245 -24.5q-275 0 -423.5 125.5t-148.5 369.5q0 157 50.5 294t139 226t197.5 106l378 59q-235 94 -312.5 124t-106.5 37.5t-60 7.5q-32 0 -56.5 -11
t-53 -40t-72.5 -86l-81 201q70 84 136.5 121.5t138.5 37.5q55 0 118 -19.5t132 -52t184 -92.5l87 -44q93 -47 128 -62.5t63.5 -21t93.5 -10.5l-42 -251l-786 -120q-40 -87 -58 -173.5z" />
    <glyph glyph-name="uniFEA2" unicode="&#x62d;" horiz-adv-x="1392" arabic-form="final" 
d="M162.5 237q50.5 137 139 226t197.5 106l378 59q-235 94 -312.5 124t-106.5 37.5t-60 7.5q-32 0 -56.5 -11t-53 -40t-72.5 -86l-81 201q70 84 136.5 121.5t138.5 37.5q55 0 118 -19.5t132 -52t184 -92.5l87 -44q93 -47 129.5 -62.5t70 -21t115.5 -10.5l-48 -251l-173 -23
q66 -98 110.5 -147.5t92.5 -71t118 -21.5h90v-234h-90q-98 0 -183 54.5t-161 149.5t-163 238l-442 -75q-85 -185 -85 -321q0 -148 101.5 -228.5t303.5 -80.5q100 0 216.5 17t253.5 47v-227q-130 -47 -258 -71.5t-245 -24.5q-181 0 -309 58t-195.5 169t-67.5 268t50.5 294z
" />
    <glyph glyph-name="uniFEA3" unicode="&#x62d;" horiz-adv-x="1423" arabic-form="initial" 
d="M180 204q144 0 249 40t184 104.5t203 188.5l45 45l-97 33q-153 53 -224.5 74t-116.5 21q-37 0 -77.5 -32t-117.5 -112l-80 197q67 69 114 107t88 54t87 16q34 0 69.5 -7.5t98.5 -29t201 -72.5q133 -49 186.5 -65t107.5 -21.5t190 -9.5l-34 -244l-237 15
q-196 -230 -320.5 -341t-241.5 -153t-286 -42h-217v234h226z" />
    <glyph glyph-name="uniFEA4" unicode="&#x62d;" horiz-adv-x="1444" arabic-form="medial" 
d="M1444 -30q-115 0 -187 34t-143 119t-204 284l-62 -66q-116 -126 -200 -199t-202.5 -122.5t-274.5 -49.5h-214v234h223q138 0 239 37t176 96.5t195 175.5l71 69q-194 69 -289 98.5t-149 29.5q-38 0 -79 -34t-109 -112l-87 198q66 69 113.5 107t88.5 54.5t87 16.5
q34 0 69.5 -7.5t98.5 -29t201 -72.5q133 -49 187 -65t108 -21.5t191 -9.5l-35 -245l-211 9q84 -130 136 -189.5t109.5 -82.5t152.5 -23h45v-234h-45z" />
    <glyph glyph-name="uniFEA5" unicode="&#x62e;" horiz-adv-x="1371" arabic-form="isolated" 
d="M330 173.5q-18 -86.5 -18 -161.5q0 -145 106.5 -225t298.5 -80q100 0 216.5 17t253.5 47v-227q-130 -47 -258 -71.5t-245 -24.5q-275 0 -423.5 125.5t-148.5 369.5q0 157 50.5 294t139 226t197.5 106l378 59q-235 94 -312.5 124t-106.5 37.5t-60 7.5q-32 0 -56.5 -11
t-53 -40t-72.5 -86l-81 201q70 84 136.5 121.5t138.5 37.5q55 0 118 -19.5t132 -52t184 -92.5l87 -44q93 -47 128 -62.5t63.5 -21t93.5 -10.5l-42 -251l-786 -120q-40 -87 -58 -173.5zM478 1543l184 -185l-184 -184l-184 184z" />
    <glyph glyph-name="uniFEA6" unicode="&#x62e;" horiz-adv-x="1392" arabic-form="final" 
d="M162.5 237q50.5 137 139 226t197.5 106l378 59q-235 94 -312.5 124t-106.5 37.5t-60 7.5q-32 0 -56.5 -11t-53 -40t-72.5 -86l-81 201q70 84 136.5 121.5t138.5 37.5q55 0 118 -19.5t132 -52t184 -92.5l87 -44q93 -47 129.5 -62.5t70 -21t115.5 -10.5l-48 -251l-173 -23
q66 -98 110.5 -147.5t92.5 -71t118 -21.5h90v-234h-90q-98 0 -183 54.5t-161 149.5t-163 238l-442 -75q-85 -185 -85 -321q0 -148 101.5 -228.5t303.5 -80.5q100 0 216.5 17t253.5 47v-227q-130 -47 -258 -71.5t-245 -24.5q-181 0 -309 58t-195.5 169t-67.5 268t50.5 294z
M510 1543l184 -185l-184 -184l-184 184z" />
    <glyph glyph-name="uniFEA7" unicode="&#x62e;" horiz-adv-x="1423" arabic-form="initial" 
d="M180 204q144 0 249 40t184 104.5t203 188.5l45 45l-97 33q-153 53 -224.5 74t-116.5 21q-37 0 -77.5 -32t-117.5 -112l-80 197q67 69 114 107t88 54t87 16q34 0 69.5 -7.5t98.5 -29t201 -72.5q133 -49 186.5 -65t107.5 -21.5t190 -9.5l-34 -244l-237 15
q-196 -230 -320.5 -341t-241.5 -153t-286 -42h-217v234h226zM524 1469l184 -185l-184 -184l-184 184z" />
    <glyph glyph-name="uniFEA8" unicode="&#x62e;" horiz-adv-x="1444" arabic-form="medial" 
d="M1444 -30q-115 0 -187 34t-143 119t-204 284l-62 -66q-116 -126 -200 -199t-202.5 -122.5t-274.5 -49.5h-214v234h223q138 0 239 37t176 96.5t195 175.5l71 69q-194 69 -289 98.5t-149 29.5q-38 0 -79 -34t-109 -112l-87 198q66 69 113.5 107t88.5 54.5t87 16.5
q34 0 69.5 -7.5t98.5 -29t201 -72.5q133 -49 187 -65t108 -21.5t191 -9.5l-35 -245l-211 9q84 -130 136 -189.5t109.5 -82.5t152.5 -23h45v-234h-45zM464 1456l184 -185l-184 -184l-184 184z" />
    <glyph glyph-name="uniFEA9" unicode="&#x62f;" horiz-adv-x="1127" arabic-form="isolated" 
d="M313 195q67 -27 200 -27q94 0 190.5 13.5t156.5 35.5q-5 164 -76 323t-195 294l148 193q141 -152 219.5 -351t78.5 -405q0 -165 -137.5 -252.5t-393.5 -87.5q-146 0 -227.5 30t-117.5 99.5t-36 192.5l1 213h189v-271z" />
    <glyph glyph-name="uniFEAA" unicode="&#x62f;" horiz-adv-x="1335" arabic-form="final" 
d="M1290 -30q-188 0 -317 116q-78 -72 -197 -111t-272 -39q-146 0 -228 30t-117.5 99t-35.5 192l1 215h189v-273q65 -24 203 -24q99 0 200.5 13t159.5 33l-110 704l217 57l48 -518q9 -97 26.5 -148.5t70.5 -81.5t162 -30h89v-234h-89z" />
    <glyph glyph-name="uniFEAB" unicode="&#x630;" horiz-adv-x="1127" arabic-form="isolated" 
d="M313 195q67 -27 200 -27q94 0 190.5 13.5t156.5 35.5q-5 164 -76 323t-195 294l148 193q141 -152 219.5 -351t78.5 -405q0 -165 -137.5 -252.5t-393.5 -87.5q-146 0 -227.5 30t-117.5 99.5t-36 192.5l1 213h189v-271zM717 1592l184 -185l-184 -184l-184 184z" />
    <glyph glyph-name="uniFEAC" unicode="&#x630;" horiz-adv-x="1335" arabic-form="final" 
d="M1290 -30q-188 0 -317 116q-78 -72 -197 -111t-272 -39q-146 0 -228 30t-117.5 99t-35.5 192l1 215h189v-273q65 -24 203 -24q99 0 200.5 13t159.5 33l-110 704l217 57l48 -518q9 -97 26.5 -148.5t70.5 -81.5t162 -30h89v-234h-89zM863 1564l184 -185l-184 -184l-184 184
z" />
    <glyph glyph-name="uniFEAD" unicode="&#x631;" horiz-adv-x="833" arabic-form="isolated" 
d="M741 167q0 -178 -75 -321t-205 -224.5t-286 -81.5q-88 0 -175 26v227q71 -11 127 -11q158 0 269.5 78.5t181.5 238.5l-100 640l227 57q36 -372 36 -629z" />
    <glyph glyph-name="uniFEAE" unicode="&#x631;" horiz-adv-x="1032" arabic-form="final" 
d="M987 -30q-153 0 -264 54q-39 -146 -118 -255.5t-189.5 -169t-239.5 -59.5q-83 0 -176 26v227q75 -11 128 -11q156 0 267.5 77.5t182.5 239.5l-100 640l228 55l49 -590h321v-234h-89z" />
    <glyph glyph-name="uniFEAF" unicode="&#x632;" horiz-adv-x="833" arabic-form="isolated" 
d="M741 167q0 -178 -75 -321t-205 -224.5t-286 -81.5q-88 0 -175 26v227q71 -11 127 -11q158 0 269.5 78.5t181.5 238.5l-100 640l227 57q36 -372 36 -629zM585 1389l184 -185l-184 -184l-184 184z" />
    <glyph glyph-name="uniFEB0" unicode="&#x632;" horiz-adv-x="1032" arabic-form="final" 
d="M987 -30q-153 0 -264 54q-39 -146 -118 -255.5t-189.5 -169t-239.5 -59.5q-83 0 -176 26v227q75 -11 128 -11q156 0 267.5 77.5t182.5 239.5l-100 640l228 55l49 -590h321v-234h-89zM597 1383l184 -185l-184 -184l-184 184z" />
    <glyph glyph-name="uniFEB1" unicode="&#x633;" horiz-adv-x="2634" arabic-form="isolated" 
d="M311.5 168q-6.5 -69 -6.5 -118q0 -133 75.5 -194.5t239.5 -61.5q104 0 223 26.5t243 77.5l-35 853l228 34v-569q82 -9 190 -9q96 0 182.5 8t141.5 24v512h197l5 -507q54 -24 139.5 -34t178.5 -10h36l-34 653l228 34v-619q-2 -141 -81 -222t-217 -81q-92 0 -190 29
t-174 74q-66 -43 -184.5 -72.5t-245.5 -29.5q-102 0 -179 27q-8 -95 -34.5 -159t-80.5 -110t-145 -82q-113 -45 -226 -68t-210 -23q-224 0 -338.5 118t-114.5 350q0 54 6 121.5t30 266.5h182q-23 -170 -29.5 -239z" />
    <glyph glyph-name="uniFEB2" unicode="&#x633;" horiz-adv-x="2811" arabic-form="final" 
d="M311.5 167q-6.5 -68 -6.5 -117q0 -133 75.5 -194.5t239.5 -61.5q104 0 223 26.5t243 77.5l-35 853l228 34v-569q102 -11 200 -11q97 0 180.5 9t133.5 25l1 512h196l5 -507q52 -22 128.5 -32.5t161.5 -10.5l49 1l-24 548l226 36v-582h321v-234h-91q-82 0 -156 17.5
t-133 50.5q-43 -36 -108 -54.5t-143 -18.5q-85 0 -176.5 27.5t-168.5 75.5q-67 -44 -180.5 -73t-239.5 -29q-48 0 -99 7.5t-90 19.5q-8 -99 -34.5 -163.5t-80 -109t-145.5 -78.5q-116 -44 -229 -67.5t-207 -23.5q-224 0 -338.5 118t-114.5 350q0 53 6 120t30 268h182
q-23 -172 -29.5 -240z" />
    <glyph glyph-name="uniFEB3" unicode="&#x633;" horiz-adv-x="1915" arabic-form="initial" 
d="M1824 286q0 -100 -45.5 -173t-124 -111.5t-175.5 -38.5q-72 0 -150.5 27t-156.5 77q-62 -49 -153.5 -76t-191.5 -27q-102 0 -199 24t-168 69q-62 -42 -170.5 -64.5t-244.5 -22.5h-90v234l416 1v547h198l5 -533q97 -29 259 -29q146 0 249 23v539h198l5 -539q37 -11 96 -17
t124 -6q78 0 128 7l-37 680l228 33v-624z" />
    <glyph glyph-name="uniFEB4" unicode="&#x633;" horiz-adv-x="2101" arabic-form="medial" 
d="M371 205v548h198l5 -534q49 -14 118.5 -21.5t145.5 -7.5q70 0 134.5 6t109.5 17v540h198l5 -540q37 -11 96 -17t124 -6q78 0 128 7l-24 556l226 35v-583l309 -1v-234h-88q-79 0 -158 21.5t-141 56.5q-54 -42 -124 -64t-146 -22q-84 0 -165.5 26.5t-149.5 78.5
q-63 -47 -155 -75t-190 -28q-102 0 -199 24t-168 69q-62 -41 -171 -64t-244 -23h-91v234z" />
    <glyph glyph-name="uniFEB5" unicode="&#x634;" horiz-adv-x="2634" arabic-form="isolated" 
d="M1890 1159l-170 171l170 171l171 -171zM1722 864l-170 171l170 171l168 -168l164 164l171 -171l-171 -171l-168 168zM2543 887v-619q-2 -141 -81 -222t-217 -81q-92 0 -190 29t-174 74q-66 -43 -184.5 -72.5t-245.5 -29.5q-102 0 -179 27q-8 -95 -34.5 -159t-80.5 -110
t-145 -82q-113 -45 -226 -68t-210 -23q-224 0 -338.5 118t-114.5 350q0 54 6 121.5t30 266.5h182q-23 -170 -29.5 -239t-6.5 -118q0 -133 75.5 -194.5t239.5 -61.5q104 0 223 26.5t243 77.5l-35 853l228 34v-569q82 -9 190 -9q96 0 182.5 8t141.5 24v512h197l5 -507
q54 -24 139.5 -34t178.5 -10h36l-34 653z" />
    <glyph glyph-name="uniFEB6" unicode="&#x634;" horiz-adv-x="2811" arabic-form="final" 
d="M1890 1159l-170 171l170 171l171 -171zM1722 864l-170 171l170 171l168 -168l164 164l171 -171l-171 -171l-168 168zM2857 204v-234h-91q-82 0 -156 17.5t-133 50.5q-43 -36 -108 -54.5t-143 -18.5q-85 0 -176.5 27.5t-168.5 75.5q-67 -44 -180.5 -73t-239.5 -29
q-48 0 -99 7.5t-90 19.5q-8 -99 -34.5 -163.5t-80 -109t-145.5 -78.5q-116 -44 -229 -67.5t-207 -23.5q-224 0 -338.5 118t-114.5 350q0 53 6 120t30 268h182q-23 -172 -29.5 -240t-6.5 -117q0 -133 75.5 -194.5t239.5 -61.5q104 0 223 26.5t243 77.5l-35 853l228 34v-569
q102 -11 200 -11q97 0 180.5 9t133.5 25l1 512h196l5 -507q52 -22 128.5 -32.5t161.5 -10.5l49 1l-24 548l226 36v-582h321z" />
    <glyph glyph-name="uniFEB7" unicode="&#x634;" horiz-adv-x="1915" arabic-form="initial" 
d="M1153 1195l-170 171l170 171l171 -171zM985 900l-170 171l170 171l168 -168l164 164l171 -171l-171 -171l-168 168zM1824 910v-624q0 -100 -45.5 -173t-124 -111.5t-175.5 -38.5q-72 0 -150.5 27t-156.5 77q-62 -49 -153.5 -76t-191.5 -27q-102 0 -199 24t-168 69
q-62 -42 -170.5 -64.5t-244.5 -22.5h-90v234l416 1v547h198l5 -533q97 -29 259 -29q146 0 249 23v539h198l5 -539q37 -11 96 -17t124 -6q78 0 128 7l-37 680z" />
    <glyph glyph-name="uniFEB8" unicode="&#x634;" horiz-adv-x="2101" arabic-form="medial" 
d="M1180 1159l-170 171l170 171l171 -171zM1012 864l-170 171l170 171l168 -168l164 164l171 -171l-171 -171l-168 168zM2144 204v-234h-88q-79 0 -158 21.5t-141 56.5q-54 -42 -124 -64t-146 -22q-84 0 -165.5 26.5t-149.5 78.5q-63 -47 -155 -75t-190 -28q-102 0 -199 24
t-168 69q-62 -41 -171 -64t-244 -23h-91v234l417 1v548h198l5 -534q49 -14 118.5 -21.5t145.5 -7.5q70 0 134.5 6t109.5 17v540h198l5 -540q37 -11 96 -17t124 -6q78 0 128 7l-24 556l226 35v-583z" />
    <glyph glyph-name="uniFEB9" unicode="&#x635;" horiz-adv-x="2673" arabic-form="isolated" 
d="M1279 250l51 -18q128 219 241.5 362.5t259.5 231t332 87.5q133 0 227 -54.5t143 -158.5t49 -252q0 -186 -67 -288.5t-223.5 -146t-439.5 -43.5h-172q-133 0 -231 12t-176 38q-8 -119 -32.5 -187t-76.5 -110.5t-152 -80.5q-116 -44 -229 -67.5t-207 -23.5
q-224 0 -338.5 118t-114.5 350q0 53 6 120.5t30 266.5h182q-23 -171 -29.5 -239t-6.5 -117q0 -133 75.5 -194.5t239.5 -61.5q104 0 223 26.5t243 77.5l-35 853l228 34v-535zM1852 204l125 -1q131 0 214.5 14.5t134.5 64t51 148.5v169q-49 35 -120 56t-144 21
q-148 0 -285 -114t-282 -358h306z" />
    <glyph glyph-name="uniFEBA" unicode="&#x635;" horiz-adv-x="2826" arabic-form="final" 
d="M2781 -30q-114 0 -215 23t-164 64q-82 -45 -215.5 -66t-332.5 -21h-174q-133 0 -231 12t-176 38q-8 -119 -32.5 -187t-76.5 -110.5t-152 -80.5q-116 -44 -229 -67.5t-207 -23.5q-224 0 -338.5 118t-114.5 350q0 53 6 122.5t29 264.5h183q-23 -168 -29.5 -237.5
t-6.5 -118.5q0 -133 75.5 -194.5t239.5 -61.5q104 0 223 26.5t243 77.5l-35 851l228 35v-534l51 -18q128 219 241.5 362.5t259.5 231t332 87.5q129 0 221 -53.5t140.5 -155.5t48.5 -245q0 -56 -15 -129.5t-34 -124.5l347 -1v-234h-90zM1852 204l119 -1q129 0 213.5 14.5
t138.5 64t54 148.5v169q-49 35 -120 56t-144 21q-148 0 -285 -113.5t-282 -357.5z" />
    <glyph glyph-name="uniFEBB" unicode="&#x635;" horiz-adv-x="2080" arabic-form="initial" 
d="M-45 204h90q113 0 181 5.5t127 22.5l2 547h196l5 -542q24 -7 52.5 -12.5t56.5 -9.5l20 -3q165 255 306 407t280.5 221.5t298.5 69.5q210 0 314 -115t104 -347q0 -181 -70 -284t-227 -148.5t-432 -45.5h-460q-88 0 -185 27.5t-161 70.5q-79 -50 -178.5 -74t-229.5 -24h-90
v234zM1313 204l116 -1q119 0 192.5 14.5t118 63.5t44.5 149v166q-49 35 -120 56t-144 21q-154 0 -305 -114t-310 -355h408z" />
    <glyph glyph-name="uniFEBC" unicode="&#x635;" horiz-adv-x="2217" arabic-form="medial" 
d="M-45 204h90q128 0 190 4.5t118 23.5l2 547h196l5 -542q22 -9 40.5 -12t54.5 -8l34 -5q165 255 306 407t280.5 221.5t298.5 69.5q210 0 314 -115t104 -347q0 -68 -13.5 -132t-34.5 -112h322v-234h-90q-91 0 -192.5 26.5t-171.5 68.5q-84 -49 -219 -72t-330 -23h-460
q-88 0 -185 27.5t-161 70.5q-79 -50 -178.5 -74t-229.5 -24h-90v234zM1313 204l116 -1q119 0 192.5 14.5t118 63.5t44.5 149v166q-49 35 -120 56t-144 21q-154 0 -305.5 -114.5t-309.5 -354.5h408z" />
    <glyph glyph-name="uniFEBD" unicode="&#x636;" horiz-adv-x="2673" arabic-form="isolated" 
d="M1279 250l51 -18q128 219 241.5 362.5t259.5 231t332 87.5q133 0 227 -54.5t143 -158.5t49 -252q0 -186 -67 -288.5t-223.5 -146t-439.5 -43.5h-172q-133 0 -231 12t-176 38q-8 -119 -32.5 -187t-76.5 -110.5t-152 -80.5q-116 -44 -229 -67.5t-207 -23.5
q-224 0 -338.5 118t-114.5 350q0 53 6 120.5t30 266.5h182q-23 -171 -29.5 -239t-6.5 -117q0 -133 75.5 -194.5t239.5 -61.5q104 0 223 26.5t243 77.5l-35 853l228 34v-535zM1852 204l125 -1q131 0 214.5 14.5t134.5 64t51 148.5v169q-49 35 -120 56t-144 21
q-148 0 -285 -114t-282 -358h306zM1949 1516l184 -185l-184 -184l-184 184z" />
    <glyph glyph-name="uniFEBE" unicode="&#x636;" horiz-adv-x="2826" arabic-form="final" 
d="M2781 -30q-114 0 -215 23t-164 64q-82 -45 -215.5 -66t-332.5 -21h-174q-133 0 -231 12t-176 38q-8 -119 -32.5 -187t-76.5 -110.5t-152 -80.5q-116 -44 -229 -67.5t-207 -23.5q-224 0 -338.5 118t-114.5 350q0 53 6 122.5t29 264.5h183q-23 -168 -29.5 -237.5
t-6.5 -118.5q0 -133 75.5 -194.5t239.5 -61.5q104 0 223 26.5t243 77.5l-35 851l228 35v-534l51 -18q128 219 241.5 362.5t259.5 231t332 87.5q129 0 221 -53.5t140.5 -155.5t48.5 -245q0 -56 -15 -129.5t-34 -124.5l347 -1v-234h-90zM1852 204l119 -1q129 0 213.5 14.5
t138.5 64t54 148.5v169q-49 35 -120 56t-144 21q-148 0 -285 -113.5t-282 -357.5zM2070 1520l184 -185l-184 -184l-184 184z" />
    <glyph glyph-name="uniFEBF" unicode="&#x636;" horiz-adv-x="2080" arabic-form="initial" 
d="M-45 204h90q113 0 181 5.5t127 22.5l2 547h196l5 -542q24 -7 52.5 -12.5t56.5 -9.5l20 -3q165 255 306 407t280.5 221.5t298.5 69.5q210 0 314 -115t104 -347q0 -181 -70 -284t-227 -148.5t-432 -45.5h-460q-88 0 -185 27.5t-161 70.5q-79 -50 -178.5 -74t-229.5 -24h-90
v234zM1313 204l116 -1q119 0 192.5 14.5t118 63.5t44.5 149v166q-49 35 -120 56t-144 21q-154 0 -305 -114t-310 -355h408zM1467 1431l184 -185l-184 -184l-184 184z" />
    <glyph glyph-name="uniFEC0" unicode="&#x636;" horiz-adv-x="2217" arabic-form="medial" 
d="M-45 204h90q128 0 190 4.5t118 23.5l2 547h196l5 -542q22 -9 40.5 -12t54.5 -8l34 -5q165 255 306 407t280.5 221.5t298.5 69.5q210 0 314 -115t104 -347q0 -68 -13.5 -132t-34.5 -112h322v-234h-90q-91 0 -192.5 26.5t-171.5 68.5q-84 -49 -219 -72t-330 -23h-460
q-88 0 -185 27.5t-161 70.5q-79 -50 -178.5 -74t-229.5 -24h-90v234zM1313 204l116 -1q119 0 192.5 14.5t118 63.5t44.5 149v166q-49 35 -120 56t-144 21q-154 0 -305.5 -114.5t-309.5 -354.5h408zM1380 1441l184 -185l-184 -184l-184 184z" />
    <glyph glyph-name="uniFEC1" unicode="&#x637;" horiz-adv-x="1724" arabic-form="isolated" 
d="M618 581q138 160 289 244t307 84q133 0 227 -54t143 -157t49 -250q0 -185 -66.5 -287t-222.5 -145.5t-440 -44.5l-730 -1l-24 234h213q24 45 35.5 94t12.5 108l-27 955l232 29zM1428 595q-102 77 -227 77q-109 0 -227.5 -57t-229.5 -163t-197 -247h357l143 -1
q131 0 210 14.5t125 63.5t46 148v165z" />
    <glyph glyph-name="uniFEC2" unicode="&#x637;" horiz-adv-x="1886" arabic-form="final" 
d="M618 581q138 160 289 244t307 84q133 0 227 -54t143 -157t49 -250q0 -66 -12.5 -131.5t-31.5 -112.5h342v-234h-90q-118 0 -218 23.5t-165 67.5q-83 -46 -217.5 -68t-336.5 -22l-730 -1l-24 234h213q24 45 35.5 94t12.5 108l-27 955l232 30zM1428 595q-102 77 -227 77
q-109 0 -227.5 -57t-229.5 -163t-197 -247h357q110 0 188.5 4t168.5 11q167 12 167 210v165z" />
    <glyph glyph-name="uniFEC3" unicode="&#x637;" horiz-adv-x="1599" arabic-form="initial" 
d="M493 571q141 162 291.5 250t304.5 88q133 0 227 -54t143 -157t49 -250q0 -185 -66.5 -287t-222.5 -145.5t-440 -44.5l-824 -1v234h273q28 53 43 121.5t13 137.5l-25 898l232 30zM1313 595q-52 39 -109 58t-128 19q-110 0 -231 -57t-233.5 -163t-199.5 -247h367
q110 0 188.5 4t168.5 11q91 7 134 58.5t43 151.5v165z" />
    <glyph glyph-name="uniFEC4" unicode="&#x637;" horiz-adv-x="1752" arabic-form="medial" 
d="M492 581q138 160 289 244t307 84q133 0 227 -54t143 -157t49 -250q0 -68 -12 -132.5t-30 -111.5h332v-234h-90q-122 0 -218.5 23.5t-157.5 67.5q-162 -90 -571 -90l-805 -1v234h282q25 47 35.5 100.5t10.5 126.5v32l-25 898l232 31zM1302 595q-102 77 -227 77
q-109 0 -227.5 -57t-229.5 -163t-197 -247h357q110 0 188.5 4t168.5 11q85 7 126 59t41 151v165z" />
    <glyph glyph-name="uniFEC5" unicode="&#x638;" horiz-adv-x="1724" arabic-form="isolated" 
d="M618 581q138 160 289 244t307 84q133 0 227 -54t143 -157t49 -250q0 -185 -66.5 -287t-222.5 -145.5t-440 -44.5l-730 -1l-24 234h213q24 45 35.5 94t12.5 108l-27 955l232 29zM1428 595q-102 77 -227 77q-109 0 -227.5 -57t-229.5 -163t-197 -247h357l143 -1
q131 0 210 14.5t125 63.5t46 148v165zM1073 1511l184 -185l-184 -184l-184 184z" />
    <glyph glyph-name="uniFEC6" unicode="&#x638;" horiz-adv-x="1886" arabic-form="final" 
d="M618 581q138 160 289 244t307 84q133 0 227 -54t143 -157t49 -250q0 -66 -12.5 -131.5t-31.5 -112.5h342v-234h-90q-118 0 -218 23.5t-165 67.5q-83 -46 -217.5 -68t-336.5 -22l-730 -1l-24 234h213q24 45 35.5 94t12.5 108l-27 955l232 30zM1428 595q-102 77 -227 77
q-109 0 -227.5 -57t-229.5 -163t-197 -247h357q110 0 188.5 4t168.5 11q167 12 167 210v165zM1124 1512l184 -185l-184 -184l-184 184z" />
    <glyph glyph-name="uniFEC7" unicode="&#x638;" horiz-adv-x="1599" arabic-form="initial" 
d="M493 571q141 162 291.5 250t304.5 88q133 0 227 -54t143 -157t49 -250q0 -185 -66.5 -287t-222.5 -145.5t-440 -44.5l-824 -1v234h273q28 53 43 121.5t13 137.5l-25 898l232 30zM1313 595q-52 39 -109 58t-128 19q-110 0 -231 -57t-233.5 -163t-199.5 -247h367
q110 0 188.5 4t168.5 11q91 7 134 58.5t43 151.5v165zM1003 1511l184 -185l-184 -184l-184 184z" />
    <glyph glyph-name="uniFEC8" unicode="&#x638;" horiz-adv-x="1752" arabic-form="medial" 
d="M492 581q138 160 289 244t307 84q133 0 227 -54t143 -157t49 -250q0 -68 -12 -132.5t-30 -111.5h332v-234h-90q-122 0 -218.5 23.5t-157.5 67.5q-162 -90 -571 -90l-805 -1v234h282q25 47 35.5 100.5t10.5 126.5v32l-25 898l232 31zM1302 595q-102 77 -227 77
q-109 0 -227.5 -57t-229.5 -163t-197 -247h357q110 0 188.5 4t168.5 11q85 7 126 59t41 151v165zM993 1520l184 -185l-184 -184l-184 184z" />
    <glyph glyph-name="uniFEC9" unicode="&#x639;" horiz-adv-x="1258" arabic-form="isolated" 
d="M941.5 -291.5q117.5 14.5 195.5 32.5v-227q-88 -32 -232.5 -53.5t-242.5 -21.5q-165 0 -286 58t-187 173.5t-66 284.5q0 132 42 244.5t115 185.5q-58 105 -88 204.5t-30 187.5q0 122 55 214t165.5 143.5t270.5 51.5q145 0 311 -46v-236q-154 34 -306 34q-166 0 -295 -40
q11 -212 89 -445l650 137l-24 -252l-740 -139q-8 -44 -12.5 -102.5t-4.5 -108.5q0 -106 45 -170.5t138.5 -94t242.5 -29.5q77 0 194.5 14.5z" />
    <glyph glyph-name="uniFECA" unicode="&#x639;" horiz-adv-x="1234" arabic-form="final" 
d="M326 365q-110 150 -160 315.5t-53 353.5q368 64 576 64q229 0 340 -64t111 -198q0 -121 -98.5 -279t-259.5 -304q133 -49 407 -49h90v-234h-90q-248 0 -432 61.5t-318 189.5q-71 -75 -113.5 -154t-42.5 -145q0 -117 119.5 -171.5t306.5 -54.5q162 0 318 35v-227
q-188 -69 -371 -69q-153 0 -275 50.5t-193 151.5t-71 248q0 211 209 480zM767 485.5q74 84.5 123 172t66 162.5q-63 16 -137.5 25t-143.5 9q-119 0 -366 -32q21 -175 95 -289t200 -198q89 66 163 150.5z" />
    <glyph glyph-name="uniFECB" unicode="&#x639;" horiz-adv-x="1265" arabic-form="initial" 
d="M707 805q-94 0 -179.5 -10.5t-150.5 -31.5q15 -107 63.5 -248t109.5 -243l592 165v-240q-86 -23 -220 -62q-188 -54 -316.5 -86.5t-274.5 -55.5t-288 -23h-88v234h88q137 0 294 21q-72 110 -110 221.5t-38 205.5q0 122 58 212t171.5 139t277.5 49q137 0 275 -33v-235
q-128 21 -264 21z" />
    <glyph glyph-name="uniFECC" unicode="&#x639;" horiz-adv-x="1275" arabic-form="medial" 
d="M680 971q229 0 364 -61.5t135 -210.5q0 -72 -38 -161t-105.5 -176.5t-153.5 -156.5l438 -1v-234h-89q-170 0 -336.5 31t-275.5 82q-104 -51 -261 -82t-313 -31h-90v234l512 1l-314 401l102 332q255 33 425 33zM847 726.5q-86 11.5 -189 11.5q-181 0 -328 -30l321 -460
q127 88 218 206.5t116 237.5q-52 23 -138 34.5z" />
    <glyph glyph-name="uniFECD" unicode="&#x63a;" horiz-adv-x="1258" arabic-form="isolated" 
d="M941.5 -291.5q117.5 14.5 195.5 32.5v-227q-88 -32 -232.5 -53.5t-242.5 -21.5q-165 0 -286 58t-187 173.5t-66 284.5q0 132 42 244.5t115 185.5q-58 105 -88 204.5t-30 187.5q0 122 55 214t165.5 143.5t270.5 51.5q145 0 311 -46v-236q-154 34 -306 34q-166 0 -295 -40
q11 -212 89 -445l650 137l-24 -252l-740 -139q-8 -44 -12.5 -102.5t-4.5 -108.5q0 -106 45 -170.5t138.5 -94t242.5 -29.5q77 0 194.5 14.5zM564 1705l184 -185l-184 -184l-184 184z" />
    <glyph glyph-name="uniFECE" unicode="&#x63a;" horiz-adv-x="1234" arabic-form="final" 
d="M326 365q-110 150 -160 315.5t-53 353.5q368 64 576 64q229 0 340 -64t111 -198q0 -121 -98.5 -279t-259.5 -304q133 -49 407 -49h90v-234h-90q-248 0 -432 61.5t-318 189.5q-71 -75 -113.5 -154t-42.5 -145q0 -117 119.5 -171.5t306.5 -54.5q162 0 318 35v-227
q-188 -69 -371 -69q-153 0 -275 50.5t-193 151.5t-71 248q0 211 209 480zM767 485.5q74 84.5 123 172t66 162.5q-63 16 -137.5 25t-143.5 9q-119 0 -366 -32q21 -175 95 -289t200 -198q89 66 163 150.5zM603 1652l184 -185l-184 -184l-184 184z" />
    <glyph glyph-name="uniFECF" unicode="&#x63a;" horiz-adv-x="1265" arabic-form="initial" 
d="M707 805q-94 0 -179.5 -10.5t-150.5 -31.5q15 -107 63.5 -248t109.5 -243l592 165v-240q-86 -23 -220 -62q-188 -54 -316.5 -86.5t-274.5 -55.5t-288 -23h-88v234h88q137 0 294 21q-72 110 -110 221.5t-38 205.5q0 122 58 212t171.5 139t277.5 49q137 0 275 -33v-235
q-128 21 -264 21zM617 1577l184 -185l-184 -184l-184 184z" />
    <glyph glyph-name="uniFED0" unicode="&#x63a;" horiz-adv-x="1275" arabic-form="medial" 
d="M680 971q229 0 364 -61.5t135 -210.5q0 -72 -38 -161t-105.5 -176.5t-153.5 -156.5l438 -1v-234h-89q-170 0 -336.5 31t-275.5 82q-104 -51 -261 -82t-313 -31h-90v234l512 1l-314 401l102 332q255 33 425 33zM847 726.5q-86 11.5 -189 11.5q-181 0 -328 -30l321 -460
q127 88 218 206.5t116 237.5q-52 23 -138 34.5zM662 1498l184 -185l-184 -184l-184 184z" />
    <glyph glyph-name="uniFED1" unicode="&#x641;" horiz-adv-x="1816" arabic-form="isolated" 
d="M314 444q0 -104 52.5 -168.5t164 -95t291.5 -30.5q154 0 354.5 13.5t359.5 47.5l10 67q-167 -11 -275 -11q-176 0 -258.5 88.5t-82.5 271.5q0 145 32.5 260t102 182.5t176.5 67.5q236 0 360 -172.5t124 -500.5q0 -164 -44.5 -264.5t-145 -157.5t-276.5 -85
q-121 -19 -254.5 -30t-241.5 -11q-220 0 -361 53t-210 163t-69 281q0 110 9 249h189q-7 -97 -7 -218zM1545 490q-5 215 -87.5 316.5t-263.5 101.5h-59q-35 -155 -35 -236q0 -93 46 -137.5t155 -44.5h244zM1272 1642l184 -185l-184 -184l-184 184z" />
    <glyph glyph-name="uniFED2" unicode="&#x641;" horiz-adv-x="1824" arabic-form="final" 
d="M320 586q-6 -88 -6 -124q0 -107 55.5 -171.5t171 -93.5t302.5 -29q112 0 268 18q-64 45 -95 117t-31 160q0 121 55.5 242t152.5 199t216 78q123 0 194 -60.5t102 -186t31 -330.5v-201h133v-234h-90q-89 0 -193.5 18t-192.5 48q-143 -42 -319.5 -72t-310.5 -30
q-229 0 -369 51t-205.5 159.5t-65.5 286.5q0 90 13 248h189q-1 -35 -5 -93zM1199 341.5q48 -60.5 137.5 -98.5t209.5 -41v203q0 125 -18 200t-57.5 109.5t-106.5 34.5q-52 0 -101.5 -39t-80.5 -102.5t-31 -134.5t48 -131.5zM1386 1520l184 -185l-184 -184l-184 184z" />
    <glyph glyph-name="uniFED3" unicode="&#x641;" horiz-adv-x="1012" arabic-form="initial" 
d="M855 175q-65 -114 -239.5 -159.5t-530.5 -45.5h-129l-1 234h90h57q221 0 381 7.5t254 34.5l6 96l-45 -5q-81 -8 -127.5 -12t-104.5 -4q-185 0 -275 83.5t-90 257.5q0 252 70 392t248 140q159 0 271.5 -79t171 -230.5t58.5 -366.5q0 -229 -65 -343zM750 544
q-7 207 -108 312.5t-287 105.5h-72q-12 -88 -16.5 -144.5t-4.5 -112.5q0 -61 22 -95.5t72.5 -50t139.5 -15.5h254zM414 1708l184 -185l-184 -184l-184 184z" />
    <glyph glyph-name="uniFED4" unicode="&#x641;" horiz-adv-x="952" arabic-form="medial" 
d="M-45 204l232 1q-40 54 -65.5 127t-25.5 141q0 137 63 254t165 186t213 69q115 0 186.5 -54t105.5 -174t34 -319v-231h134v-234h-90q-84 0 -205 20t-220 63q-94 -44 -208.5 -63.5t-228.5 -19.5h-90v234zM669 405q0 125 -17.5 200t-56 109.5t-103.5 34.5q-47 0 -100.5 -26
t-91 -82t-37.5 -140q0 -141 113 -217.5t293 -86.5v208zM499 1543l184 -185l-184 -184l-184 184z" />
    <glyph glyph-name="uniFED5" unicode="&#x642;" horiz-adv-x="1565" arabic-form="isolated" 
d="M874 1009l-168 153l168 153l167 -152l166 151l168 -153l-168 -153l-167 152zM1350 673.5q124 -172.5 124 -499.5q0 -117 -12 -204t-48 -157t-105 -110q-80 -46 -205 -83t-261 -57.5t-249 -20.5q-233 0 -352 120.5t-119 356.5q0 57 6 136t25 251h182q-31 -249 -31 -356
q0 -265 333 -265q132 0 311.5 28.5t338.5 80.5l10 104q-186 -22 -278 -22q-176 0 -259 89t-83 272q0 227 73.5 368t238.5 141q236 0 360 -172.5zM1294 199q-4 147 -37 241.5t-103 142t-184 47.5h-86q-34 -147 -34 -250q0 -98 45.5 -139.5t153.5 -41.5h245z" />
    <glyph glyph-name="uniFED6" unicode="&#x642;" horiz-adv-x="1684" arabic-form="final" 
d="M814 1005l-168 153l168 153l167 -152l166 151l168 -153l-168 -153l-167 152zM1729 204v-234h-267q-29 -200 -153 -271q-80 -46 -204.5 -82t-260.5 -55.5t-250 -19.5q-233 0 -352 120.5t-119 356.5q0 57 6 136t25 251h182q-31 -249 -31 -356q0 -265 333 -265
q141 0 318.5 24.5t331.5 74.5l10 114q-186 -22 -278 -22q-176 0 -259 89t-83 272q0 227 73.5 368t238.5 141q231 0 354.5 -164.5t129.5 -477.5h255zM1294 199q-4 147 -37 241.5t-103 142t-184 47.5h-106q-14 -98 -19 -151.5t-5 -98.5q0 -66 20.5 -105.5t66 -57.5t122.5 -18
h245z" />
    <glyph glyph-name="uniFED7" unicode="&#x642;" horiz-adv-x="1012" arabic-form="initial" 
d="M259 1291l-168 153l168 153l167 -152l166 151l168 -153l-168 -153l-167 152zM690.5 1115q112.5 -79 171 -230.5t58.5 -366.5q0 -229 -65 -343t-239.5 -159.5t-530.5 -45.5h-129l-1 234h90h57q221 0 381 7.5t254 34.5l6 96l-45 -5q-81 -8 -127.5 -12t-104.5 -4
q-185 0 -275 83.5t-90 257.5q0 252 70 392t248 140q159 0 271.5 -79zM750 544q-7 207 -108 312.5t-287 105.5h-72q-12 -88 -16.5 -144.5t-4.5 -112.5q0 -61 22 -95.5t72.5 -50t139.5 -15.5h254z" />
    <glyph glyph-name="uniFED8" unicode="&#x642;" horiz-adv-x="952" arabic-form="medial" 
d="M344 1126l-168 153l168 153l167 -152l166 151l168 -153l-168 -153l-167 152zM997 204v-234h-90q-84 0 -205 20t-220 63q-94 -44 -208.5 -63.5t-228.5 -19.5h-90v234l232 1q-40 54 -65.5 127t-25.5 141q0 137 63 254t165 186t213 69q115 0 186.5 -54t105.5 -174t34 -319
v-231h134zM669 405q0 125 -17.5 200t-56 109.5t-103.5 34.5q-47 0 -100.5 -26t-91 -82t-37.5 -140q0 -141 113 -217.5t293 -86.5v208z" />
    <glyph glyph-name="uniFED9" unicode="&#x643;" horiz-adv-x="1340" arabic-form="isolated" 
d="M545 137q351 0 504 99l-35 1074l232 35l3 -1020q0 -151 -96 -247t-258.5 -139.5t-366.5 -43.5q-177 0 -375 32v238q210 -28 392 -28zM648 535l-54 311l275 24v-169l-126 -5q33 -106 33 -179q0 -78 -41 -116.5t-129 -39.5l-192 -3v171z" />
    <glyph glyph-name="uniFEDA" unicode="&#x643;" horiz-adv-x="1546" arabic-form="final" 
d="M478 137q347 0 571 99l-35 1074l232 35l3 -1103q97 -38 252 -38h90v-234h-90q-246 0 -361 103q-91 -88 -285 -131t-425 -43q-150 0 -274 16v241q166 -19 322 -19zM648 535l-54 311l275 24v-169l-126 -5q33 -106 33 -179q0 -78 -41 -116.5t-129 -39.5l-192 -3v171z" />
    <glyph glyph-name="uniFEDB" unicode="&#x643;" horiz-adv-x="895" arabic-form="initial" 
d="M-45 -30v234h90q176 0 287.5 8t224.5 35v222q0 127 -5.5 167.5t-30 59.5t-101.5 48l-386 142l68 348l772 157l-24 -236l-629 -103l231 -93q159 -64 210.5 -107t65 -137.5t15.5 -372.5q-4 -158 -92 -239t-234 -107t-372 -26h-90z" />
    <glyph glyph-name="uniFEDC" unicode="&#x643;" horiz-adv-x="1042" arabic-form="medial" 
d="M-45 204h90q176 0 287.5 8t224.5 35v222q0 94 -12 145.5t-40.5 80.5t-84.5 49l-386 142l68 348l771 157l-22 -236l-630 -103l231 -93q130 -52 187 -100.5t78.5 -133.5t24.5 -262q1 -49 1 -259h344v-234h-90q-104 0 -199.5 29.5t-167.5 84.5q-81 -62 -215.5 -88
t-369.5 -26h-90v234z" />
    <glyph glyph-name="uniFEDD" unicode="&#x644;" horiz-adv-x="1363" arabic-form="isolated" 
d="M1271 -80q-5 -137 -135 -219.5t-291 -116t-269 -33.5q-224 0 -338.5 118t-114.5 350q0 57 6 137.5t24 248.5h182q-30 -236 -30 -355q0 -133 75.5 -194.5t239.5 -61.5q102 0 231.5 22.5t254.5 64.5l-69 1433l232 28z" />
    <glyph glyph-name="uniFEDE" unicode="&#x644;" horiz-adv-x="1561" arabic-form="final" 
d="M1271 247q59 -25 113.5 -34t131.5 -9h90v-234h-90q-143 0 -245 58v-119q-5 -138 -127 -218t-279.5 -110t-288.5 -30q-224 0 -338.5 118t-114.5 350q0 56 6 133.5t26 252.5h182q-20 -154 -26 -230t-6 -125q0 -133 75.5 -194.5t239.5 -61.5q113 0 237 20t239 58l-59 1442
l232 28z" />
    <glyph glyph-name="uniFEDF" unicode="&#x644;" horiz-adv-x="589" arabic-form="initial" 
d="M497 392q1 -215 -111 -318.5t-341 -103.5h-90v234h90q72 0 151 18t113 43l-46 1044l231 36z" />
    <glyph glyph-name="uniFEE0" unicode="&#x644;" horiz-adv-x="889" arabic-form="medial" 
d="M565 246q102 -42 279 -42h90v-234h-90q-99 0 -204 30t-189 77q-72 -46 -183 -76.5t-223 -30.5h-90v234h90q105 0 195.5 8.5t140.5 27.5l-50 1076l232 28z" />
    <glyph glyph-name="uniFEE1" unicode="&#x645;" horiz-adv-x="1188" arabic-form="isolated" 
d="M128 398q0 306 95 467t277 161q140 0 260.5 -85.5t192.5 -248t72 -381.5v-152h-710l54 -576l-241 -32v847zM398 721.5q-39 -39.5 -62.5 -122t-23.5 -205.5h511q-6 105 -55 189t-125 131t-159 47q-47 0 -86 -39.5z" />
    <glyph glyph-name="uniFEE2" unicode="&#x645;" horiz-adv-x="1443" arabic-form="final" 
d="M1440 -30q-95 0 -167 25.5t-143 89.5q-36 -90 -96.5 -159.5t-132.5 -107.5t-140 -38q-121 0 -192 86t-102.5 216t-46.5 305l-119 -29l58 -778l-242 -29v516q0 268 38.5 364.5t193.5 159t639 190.5l74 -225q47 -142 86.5 -213t106 -105t183.5 -34h50v-234h-48zM623 218.5
q28 -90.5 73.5 -140t104.5 -49.5q53 0 119.5 34t116.5 98l-148 349l-301 -80q7 -121 35 -211.5z" />
    <glyph glyph-name="uniFEE3" unicode="&#x645;" horiz-adv-x="1363" arabic-form="initial" 
d="M333.5 83q-47.5 -46 -113.5 -79.5t-145 -33.5h-120v234h77q88 0 147 22t119 79.5t153 177.5l319 410l275 -227q84 -69 124 -146t40 -170q0 -12 -2 -40q-11 -127 -68.5 -227t-147.5 -156t-196 -56q-22 0 -33 1q-120 10 -201 102t-111 233q-69 -78 -116.5 -124zM792 588
l-227 -281q30 -92 97 -148.5t146 -56.5q61 0 116.5 34t94 95.5t49.5 139.5z" />
    <glyph glyph-name="uniFEE4" unicode="&#x645;" horiz-adv-x="1501" arabic-form="medial" 
d="M36 204q111 0 165 22t138 109t320 359l275 -242q156 -138 216 -181.5t115.5 -55t188.5 -11.5h92v-234h-92q-98 0 -181.5 24t-181.5 84q-19 -130 -73 -219.5t-131 -134t-164 -44.5t-171.5 49.5t-149 141.5t-92.5 214q-63 -63 -126 -89t-138 -26h-91v234h81zM689 411
l-215 -229q30 -80 76.5 -137t99 -86.5t102.5 -29.5q46 0 88 28t73 82.5t45 130.5z" />
    <glyph glyph-name="uniFEE5" unicode="&#x646;" horiz-adv-x="1381" arabic-form="isolated" 
d="M1219 731q32 -286 51 -478.5t19 -306.5q0 -137 -130.5 -225.5t-296.5 -129t-268 -40.5q-242 0 -356.5 111.5t-114.5 346.5q0 58 6 143t25 255h182q-31 -238 -31 -357q0 -130 79.5 -193t253.5 -63q107 0 230.5 28.5t242.5 82.5l-116 815l217 68zM614 1081l184 -185
l-184 -184l-184 184z" />
    <glyph glyph-name="uniFEE6" unicode="&#x646;" horiz-adv-x="1605" arabic-form="final" 
d="M1560 -30q-78 0 -148.5 15t-122.5 41v-80q0 -137 -130.5 -225.5t-296.5 -129t-268 -40.5q-237 0 -354 112.5t-117 345.5q0 59 6 143t25 254h182q-31 -249 -31 -356q0 -256 333 -256q121 0 257 35.5t245 96.5l-100 799l210 66l41 -556q54 -13 133.5 -22t135.5 -9h90v-234
h-90zM600 1130l184 -185l-184 -184l-184 184z" />
    <glyph glyph-name="uniFEE7" unicode="&#x646;" horiz-adv-x="744" arabic-form="initial" 
d="M45 204q135 0 242.5 19.5t171.5 56.5l-59 592l229 49q9 -135 16.5 -308.5t7.5 -272.5q0 -111 -76.5 -194.5t-214 -129.5t-317.5 -46h-90v234h90zM472 1394l184 -185l-184 -184l-184 184z" />
    <glyph glyph-name="uniFEE8" unicode="&#x646;" horiz-adv-x="844" arabic-form="medial" 
d="M799 -30q-88 0 -185 27.5t-161 70.5q-79 -50 -178.5 -74t-229.5 -24h-90v234h90q107 0 177 8.5t131 29.5l2 538h196l5 -533q58 -22 116 -32.5t127 -10.5h90v-234h-90zM469 1332l184 -185l-184 -184l-184 184z" />
    <glyph glyph-name="uniFEE9" unicode="&#x647;" horiz-adv-x="1019" arabic-form="isolated" 
d="M276.5 -77q-74.5 49 -116 138t-41.5 205q0 252 218 627q223 -90 340.5 -154t180.5 -151.5t63 -220.5q0 -121 -68.5 -235.5t-178 -186t-226.5 -71.5q-97 0 -171.5 49zM723.5 412.5q-39.5 51.5 -100 84.5t-169.5 78l-77 32q-41 -65 -71 -142t-30 -150q0 -57 23.5 -101
t67 -69t101.5 -25q74 0 159 46.5t137 117.5q-1 77 -40.5 128.5z" />
    <glyph glyph-name="uniFEEA" unicode="&#x647;" horiz-adv-x="1218" arabic-form="final" 
d="M921 395q0 -191 252 -191h90v-234h-90q-134 0 -231 56t-147 165l-57 -124l-594 2l-9 147q-6 89 -6 162q0 194 49 296t163.5 158t352.5 113l-6 165l232 29zM742 302l-24 416l-47 -13q-169 -45 -239.5 -74t-103.5 -81t-33 -155q0 -46 4 -93h443z" />
    <glyph glyph-name="uniFEEB" unicode="&#x647;" horiz-adv-x="1442" arabic-form="initial" 
d="M-44 204h361q-96 46 -150.5 142.5t-54.5 213.5q0 113 43.5 209.5t126.5 165t197 99.5l30 140q340 -111 497.5 -177.5t247 -166t89.5 -259.5q0 -25 -1 -38l-23 -374h-712q-124 -101 -253 -145t-309 -44h-89v234zM1166 353l8 145l1 23q0 80 -36 135.5t-113 99.5t-213 93
l-8 -495zM637 836q-31 8 -70 8q-89 0 -154 -35.5t-98 -92.5t-33 -120q0 -59 29.5 -110t89 -82.5t144.5 -31.5q45 0 92 9v455z" />
    <glyph glyph-name="uniFEEC" unicode="&#x647;" horiz-adv-x="1297" arabic-form="medial" 
d="M-45 204l266 1q5 142 55 295.5t152.5 285.5t254.5 201q124 -133 188 -278.5t64 -280.5q0 -127 -56.5 -228t-169 -162t-273.5 -67q28 -62 89.5 -114t139.5 -83.5t154 -35.5q0 183 52.5 283.5t164.5 141.5t306 41v-234h-335l1 -451q-310 0 -506 110.5t-257 341.5l-290 -1
v234zM649 216.5q95 35.5 146 109.5q-10 95 -51.5 202.5t-98.5 195.5q-58 -43 -111.5 -121t-88 -187.5t-34.5 -238.5q143 4 238 39.5z" />
    <glyph glyph-name="uniFEED" unicode="&#x648;" horiz-adv-x="1063" arabic-form="isolated" 
d="M331 -210q104 0 187 11t154.5 54t88.5 131q-134 -17 -267 -17q-130 0 -208.5 37.5t-114.5 116.5t-36 207q0 203 24.5 324.5t101.5 189.5t230 68q230 0 342.5 -181.5t112.5 -556.5q0 -226 -56 -363t-173.5 -200t-307.5 -63q-118 0 -262 21v221h184zM323.5 274.5
q19.5 -38.5 66 -55t134.5 -16.5h226q-2 185 -30.5 287t-90.5 145t-172 43q-38 0 -68 -3t-71 -11q-14 -140 -14 -279q0 -72 19.5 -110.5z" />
    <glyph glyph-name="uniFEEE" unicode="&#x648;" horiz-adv-x="1191" arabic-form="final" 
d="M159.5 654.5q24.5 121.5 101.5 189.5t230 68q225 0 338 -174t117 -534h290v-234h-304q-23 -150 -86.5 -243t-170.5 -136t-266 -43q-118 0 -262 21v221h184q104 0 187 11t154.5 54t88.5 131q-134 -17 -267 -17q-130 0 -208.5 37.5t-114.5 116.5t-36 207q0 203 24.5 324.5z
M323.5 274.5q19.5 -38.5 66 -55t134.5 -16.5h226q-2 185 -30.5 287t-90.5 145t-172 43q-38 0 -68 -3t-71 -11q-14 -140 -14 -279q0 -72 19.5 -110.5z" />
    <glyph glyph-name="uniFEEF" unicode="&#x649;" horiz-adv-x="1552" arabic-form="isolated" 
d="M980 564.5q-80 -39.5 -101 -85.5t-24 -165h296q114 0 171 -28t80 -99t23 -213q0 -116 -35 -185t-115.5 -112.5t-228.5 -79.5q-111 -27 -220 -41t-195 -14q-266 0 -390 110.5t-124 341.5q0 130 44 423h181q-19 -111 -31.5 -209.5t-12.5 -146.5q0 -103 37 -162.5
t120.5 -86.5t229.5 -27q218 0 573 79v216h-570q0 343 25 463t126 188.5t414 194.5l56 -229q-249 -93 -329 -132.5z" />
    <glyph glyph-name="uniFEF0" unicode="&#x649;" horiz-adv-x="1456" arabic-form="final" 
d="M313 207q-14 -87 -14 -148q0 -157 91.5 -234t278.5 -77q109 0 244 19t259 51v172h-400l50 214h679v-234h-164q-1 -98 -9.5 -154.5t-36 -99.5t-85.5 -76q-92 -53 -256 -89.5t-320 -36.5q-178 0 -291 54.5t-167.5 168t-54.5 291.5q0 152 61 438h183q-34 -172 -48 -259z" />
    <glyph glyph-name="uniFEF1" unicode="&#x64a;" horiz-adv-x="1552" arabic-form="isolated" 
d="M1322 286q57 -28 80 -99t23 -213q0 -116 -35 -185t-115.5 -112.5t-228.5 -79.5q-111 -27 -220 -41t-195 -14q-266 0 -390 110.5t-124 341.5q0 130 44 423h181q-19 -111 -31.5 -209.5t-12.5 -146.5q0 -103 37 -162.5t120.5 -86.5t229.5 -27q218 0 573 79v216h-570
q0 343 25 463t126 188.5t414 194.5l56 -229q-249 -93 -329 -132.5t-101 -85.5t-24 -165h296q114 0 171 -28zM880 -609l168 -153l-168 -153l-166 151l-165 -150l-168 153l168 153l166 -151z" />
    <glyph glyph-name="uniFEF2" unicode="&#x64a;" horiz-adv-x="1456" arabic-form="final" 
d="M1501 204v-234h-164q-1 -98 -9.5 -154.5t-36 -99.5t-85.5 -76q-92 -53 -256 -89.5t-320 -36.5q-178 0 -291 54.5t-167.5 168t-54.5 291.5q0 152 61 438h183q-34 -172 -48 -259t-14 -148q0 -157 91.5 -234t278.5 -77q109 0 244 19t259 51v172h-400l50 214h679zM739 -689
l168 -153l-168 -153l-166 151l-165 -150l-168 153l168 153l166 -151z" />
    <glyph glyph-name="uniFEF3" unicode="&#x64a;" horiz-adv-x="764" arabic-form="initial" 
d="M622 146.5q-81 -83.5 -230 -130t-347 -46.5h-120v234h120q160 0 279.5 20t184.5 56l-61 621l228 50q9 -92 18 -295t9 -316q0 -110 -81 -193.5zM472 -238l168 -153l-168 -153l-166 151l-165 -150l-168 153l168 153l166 -151z" />
    <glyph glyph-name="uniFEF4" unicode="&#x64a;" horiz-adv-x="844" arabic-form="medial" 
d="M889 204v-234h-90q-88 0 -185 27.5t-161 70.5q-79 -50 -178.5 -74t-229.5 -24h-90v234h90q107 0 177 8.5t131 29.5l2 538h196l5 -533q58 -22 116 -32.5t127 -10.5h90zM590 -252l168 -153l-168 -153l-166 151l-165 -150l-168 153l168 153l166 -151z" />
    <glyph glyph-name=".notdef" horiz-adv-x="995" 
d="M815 -423h-630v1989h630v-1989zM334 1433v-66h129v-73h-131v-66h330v66h-131v73h131v66h-328zM332 1176v-207h330v68h-131v139h-199zM463 1037h-65v72h65v-72zM332 916v-66h131v-74h-131v-65h199v139h131v66h-330zM597 796v-131h-265v-68h330v199h-65zM463 554v-112h68
v46h66v-94h-199v160h-66v-225h330v225h-199zM332 210v-225h330v225h-330zM597 50h-199v94h199v-94zM332 -61v-66h139l-139 -93v-66h330v66h-203l140 93h63v66h-330z" />
    <glyph glyph-name=".null" 
 />
    <glyph glyph-name="nonmarkingreturn" unicode="&#xd;" horiz-adv-x="468" 
 />
    <glyph glyph-name="space" unicode=" " horiz-adv-x="468" 
 />
    <glyph glyph-name="exclam" unicode="!" horiz-adv-x="552" 
d="M109 1342l264 44l1 -1028l-220 -17zM276 215l215 -214l-215 -216l-214 216z" />
    <glyph glyph-name="quotedbl" unicode="&#x22;" horiz-adv-x="850" 
d="M84 1556h278l-43 -580h-192zM460 1556h278l-43 -580h-192z" />
    <glyph glyph-name="numbersign" unicode="#" horiz-adv-x="1502" 
d="M1128 1097h220v-195h-269l-78 -316h230v-195h-280l-96 -386h-190l96 386h-209l-96 -386h-190l96 386h-220v195h269l78 316h-230v195h280l98 393h190l-98 -393h209l98 393h190zM891 904h-213l-79 -320h213z" />
    <glyph glyph-name="dollar" unicode="$" horiz-adv-x="1118" 
d="M973 202.5q-51 -81.5 -141.5 -134.5t-203.5 -67v-362h-114v357q-107 1 -216.5 25t-191.5 64v202h15q80 -60 179 -96.5t214 -46.5v432l-61 15q-23 5 -61 16q-146 40 -212.5 122t-66.5 206q0 94 50.5 174t142 132t208.5 63v272h114v-270q87 -3 184.5 -25t163.5 -50v-198
h-15q-165 114 -333 128v-430l23 -5l39 -9l20 -5l29 -8q285 -68 285 -324q0 -96 -51 -177.5zM514 1160q-94 -9 -153 -60.5t-59 -138.5q0 -61 19 -101t65 -67t128 -47v414zM814 456.5q-21 39.5 -65.5 64t-120.5 40.5v-415q104 12 155.5 62.5t51.5 145.5q0 63 -21 102.5z" />
    <glyph glyph-name="percent" unicode="%" horiz-adv-x="2000" 
d="M717.5 744q-89.5 -110 -262.5 -110q-175 0 -264 110.5t-89 330.5q0 222 90 332t263 110q175 0 263.5 -110.5t88.5 -330.5q0 -222 -89.5 -332zM1473 1489l-780 -1489h-165l780 1489h165zM613.5 1249.5q-15.5 66.5 -53.5 100.5t-105 34t-105.5 -34.5t-54 -101.5t-15.5 -173
q0 -107 14.5 -173t52.5 -100.5t108 -34.5q67 0 105 34.5t53.5 101.5t15.5 173q0 107 -15.5 173.5zM1807.5 81q-89.5 -110 -262.5 -110q-175 0 -264 110.5t-89 330.5q0 222 90 332t263 110q175 0 263.5 -110.5t88.5 -330.5q0 -222 -89.5 -332zM1703.5 586.5
q-15.5 66.5 -53.5 100.5t-105 34t-105.5 -34.5t-54 -101.5t-15.5 -173q0 -107 14.5 -173t52.5 -100.5t108 -34.5q67 0 105 34.5t53.5 101.5t15.5 173q0 107 -15.5 173.5z" />
    <glyph glyph-name="ampersand" unicode="&#x26;" horiz-adv-x="1380" 
d="M1445 0h-256l-204 213q-101 -129 -208.5 -186.5t-244.5 -57.5q-134 0 -239.5 55.5t-165.5 155.5t-60 229q0 154 88 274q62 82 188 160q-105 71 -153 146.5t-48 185.5q0 69 27.5 129.5t75.5 108.5q49 49 126.5 78t165.5 29q109 0 194.5 -40t133.5 -110t48 -159
q0 -117 -58 -203q-36 -53 -90.5 -95t-138.5 -72l352 -362q13 75 16.5 164t3.5 266h195v-96q0 -105 -26 -224t-79 -221zM681 1033q36 71 36 158q0 62 -25.5 108t-68.5 70.5t-94 24.5q-58 0 -101.5 -27t-66.5 -75t-23 -108q0 -41 8 -69.5t31 -65.5q50 -73 155 -137
q103 34 149 121zM438 772q-30 -19 -54 -41.5t-51 -62.5q-26 -38 -43.5 -94.5t-17.5 -116.5q0 -94 38.5 -168t109.5 -115.5t165 -41.5q97 0 174 41t139 128z" />
    <glyph glyph-name="quotesingle" unicode="'" horiz-adv-x="421" 
d="M76 1556h278l-43 -580h-192z" />
    <glyph glyph-name="parenleft" unicode="(" horiz-adv-x="603" 
d="M163.5 103q-63.5 211 -63.5 434q0 220 62.5 432t183.5 388l162 -43q-99 -153 -150.5 -356.5t-51.5 -421.5q0 -221 53 -424t155 -352l-162 -43q-125 175 -188.5 386z" />
    <glyph glyph-name="parenright" unicode=")" horiz-adv-x="603" 
d="M100 -240q102 149 155 352t53 424q0 218 -51.5 421.5t-150.5 356.5l162 43q121 -176 183.5 -388t62.5 -432q0 -223 -63.5 -434t-188.5 -386z" />
    <glyph glyph-name="asterisk" unicode="*" horiz-adv-x="1203" 
d="M619 937l-270 -322l-143 125l268 282l-365 128l67 177l357 -144l-9 372h189l-9 -370l352 142l64 -178l-357 -125l271 -285l-143 -125z" />
    <glyph glyph-name="plus" unicode="+" horiz-adv-x="1070" 
d="M461 376h-353v151h353l-6 315l154 1l3 -316h350v-151h-354l7 -337l-148 -2z" />
    <glyph glyph-name="comma" unicode="," horiz-adv-x="599" 
d="M219 286h314l-282 -660h-209z" />
    <glyph glyph-name="hyphen" unicode="-" horiz-adv-x="820" 
d="M109 545h601v-210h-601v210z" />
    <glyph glyph-name="period" unicode="." horiz-adv-x="546" 
d="M276 221l221 -220l-221 -222l-220 222z" />
    <glyph glyph-name="slash" unicode="/" horiz-adv-x="917" 
d="M84 -282l566 1561l193 -44l-563 -1554z" />
    <glyph glyph-name="zero" unicode="0" horiz-adv-x="1118" 
d="M983.5 305.5q-51.5 -171.5 -156.5 -254t-268 -82.5q-245 0 -360.5 190t-115.5 584q0 269 51.5 440t156.5 253.5t268 82.5q244 0 360 -191.5t116 -582.5q0 -268 -51.5 -439.5zM819.5 474q12.5 111 12.5 271q0 159 -12.5 270.5t-41.5 183.5q-31 78 -84 116.5t-135 38.5
t-136 -39t-85 -118q-28 -72 -40 -184.5t-12 -269.5q0 -169 10.5 -269.5t40.5 -179.5t84 -119.5t138 -40.5q82 0 136 39t84 118q28 72 40.5 183z" />
    <glyph glyph-name="one" unicode="1" horiz-adv-x="1118" 
d="M952 0h-726v152h270v998h-270v136q106 0 170 19t97.5 64t39.5 125h155v-1342h264v-152z" />
    <glyph glyph-name="two" unicode="2" horiz-adv-x="1118" 
d="M1028 0h-919v209q121 115 202 195t157 164q115 127 178 215t89.5 161.5t26.5 155.5q0 61 -19 108t-54 79q-70 60 -182 60q-95 0 -212 -47q-70 -29 -144 -82h-11v212q69 34 179.5 62t202.5 28q137 0 237 -50t153.5 -142.5t53.5 -217.5q0 -163 -77 -298q-34 -60 -83 -121.5
t-116 -133.5q-134 -146 -394 -386h732v-171z" />
    <glyph glyph-name="three" unicode="3" horiz-adv-x="1118" 
d="M297 1300q-42 -18 -75 -37.5t-72 -45.5h-12v211q69 37 180.5 64.5t208.5 27.5q101 0 176.5 -20.5t136.5 -63.5q133 -97 133 -275q0 -80 -37 -150.5t-100 -119t-138 -64.5v-14q122 -23 200 -96q49 -45 76.5 -114t27.5 -161q0 -100 -34 -184.5t-98 -150.5
q-132 -138 -366 -138q-108 0 -218.5 26t-188.5 66v211h14q71 -51 177 -90.5t204 -39.5q65 0 125.5 20.5t99.5 62.5q42 47 62 100t20 131q0 151 -89 215q-74 53 -224 53h-85v166h66q138 0 221 65t83 185q0 54 -21 95t-57 66q-67 46 -182 46q-98 0 -214 -47z" />
    <glyph glyph-name="four" unicode="4" horiz-adv-x="1118" 
d="M1067 512h-177v-512h-192v512h-658v210l666 767h184v-817h177v-160zM698 672v582l-502 -582h502z" />
    <glyph glyph-name="five" unicode="5" horiz-adv-x="1118" 
d="M977 274.5q-34 -92.5 -97 -159.5q-64 -70 -158 -108t-208 -38q-105 0 -209 23t-181 62v211h14q24 -18 67.5 -39.5t93.5 -39.5q65 -23 113 -33.5t105 -10.5q63 0 119 22.5t96 68.5q38 45 57 104.5t19 137.5q0 77 -21 128.5t-63 85.5q-41 37 -102.5 53t-142.5 16
q-73 0 -153.5 -11t-140.5 -25v767h817v-175h-624v-396q77 8 135 8q118 0 196.5 -20t148.5 -73q77 -58 115 -143t38 -216q0 -107 -34 -199.5z" />
    <glyph glyph-name="six" unicode="6" horiz-adv-x="1118" 
d="M1013.5 273.5q-37.5 -97.5 -102.5 -164.5q-135 -140 -333 -140q-202 0 -329 135q-164 172 -164 550q0 395 163 623q82 115 211 177.5t294 62.5q107 0 169 -21v-191h-9q-29 16 -80.5 28t-106.5 12q-188 0 -301.5 -127t-134.5 -371q74 52 148.5 78t161.5 26
q92 0 156.5 -18.5t132.5 -69.5q162 -123 162 -380q0 -112 -37.5 -209.5zM824 629.5q-24 61.5 -78 105.5q-36 30 -83.5 41t-106.5 11q-134 0 -266 -82q-4 -39 -4 -94q0 -147 28.5 -244t77.5 -150q41 -46 86.5 -65.5t100.5 -19.5q81 0 141.5 38.5t94 115.5t33.5 189
q0 93 -24 154.5z" />
    <glyph glyph-name="seven" unicode="7" horiz-adv-x="1118" 
d="M1044 1266l-644 -1266h-213l682 1314h-770v175h945v-223z" />
    <glyph glyph-name="eight" unicode="8" horiz-adv-x="1118" 
d="M357 -1q-91 33 -155 95q-62 59 -95 141.5t-33 175.5q0 122 65.5 223.5t186.5 160.5v6q-113 65 -164.5 141.5t-51.5 188.5q0 111 58 200.5t160.5 140.5t230.5 51q133 0 235 -48.5t157.5 -134.5t55.5 -196q0 -67 -26.5 -134.5t-78 -124.5t-122.5 -92v-6q134 -63 199 -151
t65 -221q0 -126 -63.5 -228.5t-174.5 -161.5t-247 -59q-111 0 -202 33zM780.5 1262q-30.5 53 -87.5 83.5t-135 30.5q-72 0 -128.5 -27t-88 -77.5t-31.5 -117.5q0 -73 34.5 -124t107.5 -93q36 -20 99.5 -49t110.5 -45q84 64 116.5 134t32.5 165q0 67 -30.5 120zM823.5 501.5
q-15.5 42.5 -52.5 77.5t-107 73q-28 16 -90 41q-80 32 -128 52q-84 -55 -127.5 -136t-43.5 -183q0 -89 37 -160t102.5 -111t146.5 -40q83 0 146 34t97.5 97.5t34.5 149.5q0 63 -15.5 105.5z" />
    <glyph glyph-name="nine" unicode="9" horiz-adv-x="1118" 
d="M103.5 1212.5q36.5 95.5 103.5 166.5q62 66 151 103t182 37q102 0 186 -34t145 -100q80 -84 121 -218.5t41 -332.5q0 -189 -42 -353.5t-122 -271.5q-89 -119 -210 -178.5t-294 -59.5q-101 0 -169 21v191h10q27 -15 80.5 -27.5t105.5 -12.5q195 0 307.5 129t127.5 369
q-81 -55 -153.5 -79.5t-156.5 -24.5q-88 0 -155 19t-133 69q-81 61 -121.5 155t-40.5 225q0 112 36.5 207.5zM727 1272q-43 46 -87.5 65t-100.5 19q-125 0 -197 -89t-72 -254q0 -94 24 -155t78 -105q36 -29 82.5 -40.5t106.5 -11.5q64 0 138 22.5t129 59.5q0 8 2 36t2 58
q0 284 -105 395z" />
    <glyph glyph-name="colon" unicode=":" horiz-adv-x="471" 
d="M243 1000l171 -170l-171 -172l-171 172zM240 171l171 -170l-171 -172l-171 172z" />
    <glyph glyph-name="semicolon" unicode=";" horiz-adv-x="689" 
d="M512 802h-299v345h299v-345zM593 315l-305 -715h-205l192 715h318z" />
    <glyph glyph-name="less" unicode="&#x3c;" horiz-adv-x="1024" 
d="M108 380v121l808 405v-128l-671 -337l671 -338v-129z" />
    <glyph glyph-name="equal" unicode="=" horiz-adv-x="1070" 
d="M108 697h854v-152h-854v152zM108 335h854v-151h-854v151z" />
    <glyph glyph-name="greater" unicode="&#x3e;" horiz-adv-x="1024" 
d="M108 103l671 338l-671 337v128l808 -405v-121l-808 -406v129z" />
    <glyph glyph-name="question" unicode="?" horiz-adv-x="970" 
d="M793 830q-50 -54 -115.5 -102t-151.5 -100v-228h-179v305q84 50 147 92t100 78q56 53 85 113.5t29 135.5q0 110 -69 167t-187 57q-91 0 -179.5 -30.5t-152.5 -72.5h-11v204q71 29 173 49.5t189 20.5q135 0 234.5 -47t153 -133t53.5 -200q0 -182 -119 -309zM542 0h-204
v211h204v-211z" />
    <glyph glyph-name="at" unicode="@" horiz-adv-x="1868" 
d="M1701 395q-38 -130 -109 -238h-421l-25 116q-54 -46 -89.5 -70.5t-81 -39t-106.5 -14.5q-103 0 -182.5 56t-123.5 164.5t-44 261.5q0 151 54.5 264t145.5 173t196 60q67 0 118 -16t111 -50v48h159v-842h227q35 66 53 175.5t18 213.5q0 219 -75 382.5t-220.5 253.5
t-349.5 90q-193 0 -349 -98.5t-244 -267.5t-88 -372q0 -218 85 -385.5t238.5 -260.5t352.5 -93q85 0 174 11.5t166 34.5v-142q-149 -36 -341 -36q-234 0 -420.5 111t-292 309.5t-105.5 452.5q0 241 109.5 440.5t298.5 315t415 115.5q241 0 418.5 -107.5t271.5 -301
t94 -446.5q0 -138 -38 -268zM1142 926q-56 29 -103 41.5t-98 12.5q-117 0 -184 -87t-67 -259q0 -163 53 -246.5t165 -83.5q111 0 234 104v518z" />
    <glyph glyph-name="A" unicode="A" horiz-adv-x="1228" 
d="M-10 0l502 1489h244l502 -1489h-209l-135 416h-569l-135 -416h-200zM839 585l-230 702l-229 -702h459z" />
    <glyph glyph-name="B" unicode="B" horiz-adv-x="1207" 
d="M1120 263q-41 -86 -114 -142q-84 -66 -180 -93.5t-248 -27.5h-427v1489h395q113 0 179 -4.5t114.5 -17t97.5 -38.5q154 -82 154 -276q0 -104 -55 -187t-154 -131v-8q133 -36 206 -132t73 -238q0 -108 -41 -194zM809 1281q-45 25 -100 32t-170 7h-190v-436h225
q93 0 137 9.5t91 39.5q44 29 63.5 75t19.5 117q0 112 -76 156zM929.5 590.5q-25.5 52.5 -95.5 89.5q-46 24 -99.5 31.5t-160.5 7.5h-225v-550h161q136 0 209 12.5t128 50.5q57 40 82.5 89.5t25.5 127.5q0 89 -25.5 141.5z" />
    <glyph glyph-name="C" unicode="C" horiz-adv-x="1230" 
d="M464 22.5q-122 49.5 -211 145.5q-91 98 -139 243.5t-48 331.5q0 184 47 323.5t139 244.5q90 101 212 153t272 52q135 0 262 -39q94 -29 198 -87v-239h-16q-41 37 -78 66.5t-89 58.5q-63 34 -130 52.5t-149 18.5q-96 0 -181 -39.5t-148 -114.5q-64 -77 -98.5 -192.5
t-34.5 -257.5q0 -286 138 -450q61 -73 145 -111t179 -38q158 0 289 74q89 50 158 119h15v-236l-69 -33l-23 -11q-43 -21 -106.5 -41.5t-119.5 -31.5q-58 -11 -145 -11q-147 0 -269 49.5z" />
    <glyph glyph-name="D" unicode="D" horiz-adv-x="1389" 
d="M1243.5 377.5q-81.5 -164.5 -222.5 -258.5q-110 -69 -225 -94t-302 -25h-343v1489h339q199 0 320.5 -29.5t212.5 -88.5q147 -97 224.5 -255t77.5 -373q0 -201 -81.5 -365.5zM1062 1039q-57 122 -169 190q-79 48 -169.5 69t-223.5 21h-151v-1149h151q138 0 235.5 22
t176.5 77q104 70 155.5 187.5t51.5 289.5q0 171 -57 293z" />
    <glyph glyph-name="E" unicode="E" horiz-adv-x="1149" 
d="M151 0v1489h931v-176h-733v-408h683v-176h-683v-553h733v-176h-931z" />
    <glyph glyph-name="F" unicode="F" horiz-adv-x="1068" 
d="M1042 1313h-693v-420h664v-176h-664v-717h-198v1489h891v-176z" />
    <glyph glyph-name="G" unicode="G" horiz-adv-x="1367" 
d="M483.5 19.5q-130.5 48.5 -223.5 145.5q-95 100 -144.5 246.5t-49.5 334.5q0 178 50 320.5t145 245.5q91 98 224 151t291 53q138 0 276 -41q45 -13 104 -38.5t107 -48.5v-239h-17q-45 41 -84 68.5t-104 57.5q-64 32 -142 51t-164 19q-142 0 -251 -73.5t-169 -208
t-60 -311.5q0 -291 136 -452q64 -78 154.5 -118t203.5 -40q87 0 169.5 12.5t137.5 35.5v385h-344v174h540v-650q-134 -60 -220 -84q-80 -24 -138 -34t-137 -10q-160 0 -290.5 48.5z" />
    <glyph glyph-name="H" unicode="H" horiz-adv-x="1383" 
d="M1232 0h-198v729h-685v-729h-198v1489h198v-584h685v584h198v-1489z" />
    <glyph glyph-name="I" unicode="I" horiz-adv-x="764" 
d="M671 0h-578v152h190v1185h-190v152h578v-152h-190v-1185h190v-152z" />
    <glyph glyph-name="J" unicode="J" horiz-adv-x="853" 
d="M712 387q0 -129 -54 -220.5t-153 -139.5t-233 -48q-50 0 -130 8.5t-133 20.5v189h11q61 -21 115.5 -34.5t109.5 -13.5q90 0 145 20.5t82 60.5q25 37 33.5 91.5t8.5 140.5v869h-315v158h513v-1102z" />
    <glyph glyph-name="K" unicode="K" horiz-adv-x="1204" 
d="M1236 0h-257l-543 693l-87 -98v-595h-198v1489h198v-685l610 685h241l-616 -665z" />
    <glyph glyph-name="L" unicode="L" horiz-adv-x="1019" 
d="M1014 0h-863v1489h198v-1313h665v-176z" />
    <glyph glyph-name="M" unicode="M" horiz-adv-x="1578" 
d="M1427 0h-198v1283l-388 -873h-120l-385 873v-1283h-185v1489h270l372 -829l359 829h275v-1489z" />
    <glyph glyph-name="N" unicode="N" horiz-adv-x="1367" 
d="M1216 0h-222l-658 1284v-1284h-185v1489h281l599 -1179v1179h185v-1489z" />
    <glyph glyph-name="O" unicode="O" horiz-adv-x="1449" 
d="M1336.5 1072.5q46.5 -145.5 46.5 -328.5q0 -180 -46 -326.5t-133 -245.5q-177 -203 -480 -203q-151 0 -272 51t-208 152q-87 100 -132.5 245t-45.5 327q0 362 179 574q86 99 207.5 150.5t271.5 51.5t272.5 -52.5t207.5 -149.5q86 -100 132.5 -245.5zM1145.5 1004
q-31.5 115 -90.5 191q-118 154 -330 154q-108 0 -188.5 -37.5t-142.5 -116.5q-59 -76 -90.5 -191.5t-31.5 -259.5q0 -193 55.5 -328.5t157.5 -205.5t240 -70t240 70t157 205.5t55 328.5q0 145 -31.5 260z" />
    <glyph glyph-name="P" unicode="P" horiz-adv-x="1129" 
d="M1056.5 857q-34.5 -87 -95.5 -148q-80 -78 -184.5 -116t-259.5 -38h-168v-555h-198v1489h374q132 0 225 -22t164 -71q177 -121 177 -356q0 -96 -34.5 -183zM778 1262q-47 31 -109 44t-156 13h-164v-595h135q123 0 196 20t121 69q44 45 64 98t20 124q0 156 -107 227z" />
    <glyph glyph-name="Q" unicode="Q" horiz-adv-x="1449" 
d="M1388 -364q-106 -28 -232 -28q-112 0 -196.5 42.5t-134 124t-55.5 195.5h-25h-21q-150 0 -271.5 51.5t-208.5 150.5q-87 100 -132.5 245t-45.5 327q0 362 179 574q86 99 207.5 150.5t271.5 51.5t272.5 -52.5t207.5 -149.5q86 -100 132.5 -245.5t46.5 -328.5
q0 -190 -50.5 -339t-145.5 -248.5t-226 -144.5q11 -119 57 -171q28 -32 67 -46t104 -14q37 0 90.5 12t81.5 23h27v-180zM1145.5 1004q-31.5 115 -90.5 191q-118 154 -330 154q-108 0 -188.5 -37.5t-142.5 -116.5q-59 -76 -90.5 -191.5t-31.5 -259.5q0 -193 55.5 -329
t157.5 -206t240 -70t240 70t157 206t55 329q0 145 -31.5 260z" />
    <glyph glyph-name="R" unicode="R" horiz-adv-x="1271" 
d="M1304 0h-257l-472 592h-226v-592h-198v1489h384q139 0 222 -15.5t157 -63.5q169 -109 169 -325q0 -161 -81 -271.5t-228 -165.5zM782 1268q-42 27 -97.5 39t-139.5 12h-196v-562h174q94 0 159 16.5t110 60.5q43 42 63.5 100t20.5 136q0 135 -94 198z" />
    <glyph glyph-name="S" unicode="S" horiz-adv-x="1141" 
d="M304.5 3q-112.5 30 -227.5 86v248h14q97 -91 220.5 -142t240.5 -51q161 0 246.5 67t85.5 182q0 90 -44.5 145.5t-139.5 82.5q-69 19 -126 33q-87 19 -157.5 39t-123.5 47q-62 31 -108 81t-71 116q-26 67 -26 153q0 119 64.5 216.5t179 153.5t257.5 56q243 0 443 -96v-237
h-15q-76 70 -187.5 116t-227.5 46q-91 0 -161 -29.5t-108.5 -82.5t-38.5 -122q0 -93 49 -149.5t146 -83.5q82 -21 154 -38l35 -8q81 -19 135.5 -36.5t110 -51t95.5 -86.5q71 -95 71 -234q0 -88 -36 -172.5t-99 -143.5q-75 -68 -166.5 -101.5t-222.5 -33.5q-149 0 -261.5 30z
" />
    <glyph glyph-name="T" unicode="T" horiz-adv-x="1196" 
d="M499 0v1313h-500v176h1198v-176h-500v-1313h-198z" />
    <glyph glyph-name="U" unicode="U" horiz-adv-x="1343" 
d="M275 106q-77 77 -109.5 184.5t-32.5 269.5v929h198v-929q0 -108 13.5 -177t50.5 -123q81 -122 276 -122q94 0 166 31.5t111 90.5q36 55 50 123.5t14 171.5v934h198v-929q0 -160 -32.5 -269.5t-109.5 -184.5q-72 -70 -167 -103.5t-230 -33.5q-257 0 -396 137z" />
    <glyph glyph-name="V" unicode="V" horiz-adv-x="1222" 
d="M1230 1489l-512 -1489h-214l-512 1489h212l412 -1236l412 1236h202z" />
    <glyph glyph-name="W" unicode="W" horiz-adv-x="1847" 
d="M1821 1489l-374 -1489h-223l-303 1236l-296 -1236h-218l-381 1489h203l300 -1238l298 1238h201l301 -1250l298 1250h194z" />
    <glyph glyph-name="X" unicode="X" horiz-adv-x="1189" 
d="M1181 0h-227l-363 596l-369 -596h-214l473 745l-459 744h226l356 -585l361 585h215l-466 -734z" />
    <glyph glyph-name="Y" unicode="Y" horiz-adv-x="1180" 
d="M1193 1489l-503 -830v-659h-198v638l-503 851h220l384 -657l390 657h210z" />
    <glyph glyph-name="Z" unicode="Z" horiz-adv-x="1145" 
d="M1100 0h-1040v184l797 1129h-761v176h984v-179l-806 -1134h826v-176z" />
    <glyph glyph-name="bracketleft" unicode="[" horiz-adv-x="608" 
d="M75 1493h428v-156h-221v-1578h221v-155h-428v1889z" />
    <glyph glyph-name="backslash" unicode="\" horiz-adv-x="917" 
d="M87 1233l194 43l561 -1553l-196 -37z" />
    <glyph glyph-name="bracketright" unicode="]" horiz-adv-x="608" 
d="M106 -423v155h221v1605h-221v156h428v-1916h-428z" />
    <glyph glyph-name="asciicircum" unicode="^" horiz-adv-x="1202" 
d="M520 1526h162l412 -981h-145l-349 817l-346 -817h-146z" />
    <glyph glyph-name="underscore" unicode="_" horiz-adv-x="907" 
d="M0 38h907v-176h-907v176z" />
    <glyph glyph-name="a" unicode="a" horiz-adv-x="1075" 
d="M760 119q-27 -20 -61 -47q-76 -60 -171 -89q-48 -14 -131 -14q-69 0 -130.5 25.5t-109.5 73.5q-46 46 -72.5 114t-26.5 142q0 118 49.5 199t154.5 128q86 39 204.5 56.5t293.5 27.5v36q0 123 -76 169q-59 38 -195 38q-67 0 -155 -20t-174 -56h-11v191q65 19 160 35
t181 16q118 0 196.5 -18.5t139.5 -64.5t91 -119t30 -178v-764h-187v119zM760 585l-20 -2q-103 -9 -183.5 -19t-131.5 -25q-173 -54 -173 -203q0 -96 54 -145t158 -49q83 0 154 35t142 98v310z" />
    <glyph glyph-name="b" unicode="b" horiz-adv-x="1132" 
d="M1012.5 259.5q-60.5 -138.5 -166.5 -214.5t-239 -76q-85 0 -149.5 20.5t-133.5 62.5l-12 -52h-176v1556h188v-556q79 70 161.5 109t180.5 39q125 0 217 -68.5t141 -197t49 -305.5q0 -179 -60.5 -317.5zM817 867.5q-62 101.5 -195 101.5q-74 0 -152.5 -35t-145.5 -92v-640
q72 -35 126.5 -49.5t120.5 -14.5q148 0 228 104.5t80 319.5q0 204 -62 305.5z" />
    <glyph glyph-name="c" unicode="c" horiz-adv-x="945" 
d="M368 11q-96 36 -164 107q-70 73 -107.5 183.5t-37.5 255.5q0 274 145 434q66 73 164.5 112.5t211.5 39.5q86 0 170.5 -24t159.5 -62v-211h-11q-53 45 -128 84q-41 21 -94 35.5t-100 14.5q-98 0 -170.5 -50t-112.5 -145t-40 -228q0 -131 38.5 -225.5t111 -144t173.5 -49.5
q89 0 172 36.5t150 99.5h11v-211q-32 -15 -74.5 -33t-71.5 -26q-54 -16 -91 -22.5t-93 -6.5q-116 0 -212 36z" />
    <glyph glyph-name="d" unicode="d" horiz-adv-x="1132" 
d="M996 0h-188v114q-53 -44 -82.5 -65.5t-68.5 -39.5q-42 -20 -85.5 -30t-97.5 -10q-91 0 -168.5 38.5t-131.5 110.5q-56 76 -85.5 184.5t-29.5 247.5q0 142 36.5 250t106.5 192q61 73 147.5 114.5t181.5 41.5q81 0 143 -17.5t134 -58.5v484h188v-1556zM808 916
q-69 33 -124.5 46.5t-121.5 13.5q-146 0 -227.5 -109.5t-81.5 -312.5q0 -201 64.5 -303.5t200.5 -102.5q73 0 147.5 33t142.5 91v644z" />
    <glyph glyph-name="e" unicode="e" horiz-adv-x="1078" 
d="M317.5 41.5q-126.5 67.5 -192.5 197.5t-66 313q0 180 65 315t182 208t270 73q105 0 184.5 -30.5t139.5 -93.5q62 -65 93 -158.5t31 -224.5v-102h-774q0 -193 97 -297t272 -104q60 0 119 13.5t110 36.5q89 40 144 85h11v-205l-82 -32q-90 -36 -187 -54q-48 -8 -113 -8
q-177 0 -303.5 67.5zM841 683q-4 148 -64 224q-68 86 -212 86q-73 0 -126 -22t-97 -66q-42 -44 -64 -97.5t-28 -124.5h591z" />
    <glyph glyph-name="f" unicode="f" horiz-adv-x="652" 
d="M724 1376h-10q-26 10 -73.5 18t-82.5 8q-81 0 -128.5 -23t-69.5 -76.5t-22 -147.5v-38h311v-156h-305v-961h-188v961h-127v156h127v37q0 201 97 306.5t278 105.5q83 0 193 -18v-172z" />
    <glyph glyph-name="g" unicode="g" horiz-adv-x="1132" 
d="M176 -179q62 -27 140 -47q61 -15 103 -22t89 -7q86 0 147 22.5t95 64.5q31 40 44.5 93t13.5 125v98q-79 -69 -152.5 -99t-179.5 -30q-128 0 -222 64t-144.5 187.5t-50.5 298.5q0 135 38 243t106 186q63 72 148.5 111t178.5 39q83 0 146.5 -19t131.5 -60l11 48h177v-990
q0 -283 -123.5 -416.5t-379.5 -133.5q-80 0 -165.5 13t-161.5 35v196h10zM808 916q-69 33 -128.5 48t-119.5 15q-95 0 -164 -47t-106 -138.5t-37 -220.5q0 -190 63.5 -285t201.5 -95q73 0 150.5 29t139.5 81v613z" />
    <glyph glyph-name="h" unicode="h" horiz-adv-x="1142" 
d="M1014 0h-188v636q0 182 -36 250q-24 43 -65 63t-111 20q-67 0 -141 -36t-149 -99v-834h-188v1556h188v-563q87 78 169 116.5t170 38.5q167 0 259 -109.5t92 -313.5v-725z" />
    <glyph glyph-name="i" unicode="i" horiz-adv-x="468" 
d="M341 1304h-214v195h214v-195zM328 0h-188v1117h188v-1117z" />
    <glyph glyph-name="j" unicode="j" horiz-adv-x="577" 
d="M442 1304h-214v195h214v-195zM441 -32q0 -189 -101.5 -290t-283.5 -101q-70 0 -146 12v168h11q58 -14 99 -14q76 0 124 19t72 58q21 34 29 87.5t8 137.5v916h-202v156h390v-1149z" />
    <glyph glyph-name="k" unicode="k" horiz-adv-x="1020" 
d="M1062 0h-247l-417 539l-74 -72v-467h-188v1556h188v-911l442 472h234l-459 -467z" />
    <glyph glyph-name="l" unicode="l" horiz-adv-x="468" 
d="M328 0h-188v1556h188v-1556z" />
    <glyph glyph-name="m" unicode="m" horiz-adv-x="1720" 
d="M1404 0v646q0 87 -7 149t-24 96q-21 40 -58 59t-99 19q-115 0 -262 -138l3 -40q1 -16 1 -56v-735h-188v646q0 87 -7 149t-24 96q-21 40 -58 59t-99 19q-58 0 -125 -36.5t-133 -98.5v-834h-188v1117h188v-124q78 78 150.5 116.5t155.5 38.5q103 0 178.5 -47t113.5 -146
q88 99 169 146t173 47q150 0 234 -95q47 -53 70.5 -130t23.5 -188v-735h-188z" />
    <glyph glyph-name="n" unicode="n" horiz-adv-x="1142" 
d="M1014 0h-188v636q0 182 -36 250q-24 43 -65 63t-111 20q-67 0 -141 -36t-149 -99v-834h-188v1117h188v-124q87 78 169 116.5t170 38.5q167 0 259 -109.5t92 -313.5v-725z" />
    <glyph glyph-name="o" unicode="o" horiz-adv-x="1112" 
d="M993.5 240q-61.5 -133 -173.5 -202t-263 -69q-154 0 -267 71.5t-173 204.5t-60 313q0 184 62 317t175 203t263 70q151 0 263 -69.5t173.5 -202.5t61.5 -318t-61.5 -318zM783 879q-78 107 -226 107q-149 0 -227.5 -107t-78.5 -321q0 -209 79 -318t227 -109
q147 0 225.5 108t78.5 319q0 214 -78 321z" />
    <glyph glyph-name="p" unicode="p" horiz-adv-x="1132" 
d="M1012.5 267q-60.5 -138 -167.5 -213.5t-243 -75.5q-81 0 -145 18.5t-133 59.5v-468h-188v1529h188v-117q164 148 342 148q126 0 218 -68.5t140.5 -195t48.5 -296.5q0 -183 -60.5 -321zM816.5 866.5q-62.5 102.5 -196.5 102.5q-145 0 -296 -127v-633q74 -36 126.5 -49
t120.5 -13q147 0 227.5 107.5t80.5 312.5q0 197 -62.5 299.5z" />
    <glyph glyph-name="q" unicode="q" horiz-adv-x="1132" 
d="M996 -412h-188v534q-83 -76 -161 -110t-172 -34q-126 0 -220 69t-145 199t-51 309q0 139 38 250.5t106 189.5q62 73 148 113t179 40q83 0 145.5 -19t132.5 -60l12 48h176v-1529zM808 916q-70 35 -126 49t-121 14q-148 0 -228 -107t-80 -308q0 -199 65 -303t198 -104
q76 0 151 33t141 90v636z" />
    <glyph glyph-name="r" unicode="r" horiz-adv-x="738" 
d="M728 915h-10q-20 6 -42 7.5t-59 1.5q-77 0 -152 -33t-141 -98v-793h-188v1117h188v-166q101 89 178 127.5t150 38.5q27 0 43.5 -1.5t32.5 -4.5v-196z" />
    <glyph glyph-name="s" unicode="s" horiz-adv-x="914" 
d="M238.5 0.5q-97.5 27.5 -171.5 66.5v211h10q37 -29 66.5 -48.5t76.5 -41.5q124 -56 225 -56q46 0 97 11t75 26q37 24 51.5 50.5t14.5 76.5q0 45 -15.5 74t-51.5 48.5t-99 35.5q-38 10 -94 21q-47 10 -107 26q-244 70 -244 302q0 100 52 177.5t146.5 120.5t218.5 43
q91 0 185.5 -22.5t159.5 -58.5v-201h-10q-73 58 -161.5 90.5t-177.5 32.5q-97 0 -159 -40.5t-62 -116.5q0 -68 36.5 -103.5t123.5 -57.5q44 -11 94 -21q22 -4 81 -19l27 -6q125 -31 187 -104t62 -195q0 -73 -29 -137.5t-83 -109.5q-62 -52 -138 -77t-187 -25
q-102 0 -199.5 27.5z" />
    <glyph glyph-name="t" unicode="t" horiz-adv-x="685" 
d="M232 67.5q-84 89.5 -84 274.5v619h-127v156h127v321h188v-321h346v-156h-346v-531q0 -100 4 -140.5t22 -76.5q17 -36 55 -53t103 -17q40 0 82.5 11.5t68.5 24.5h11v-169q-114 -32 -208 -32q-158 0 -242 89.5z" />
    <glyph glyph-name="u" unicode="u" horiz-adv-x="1142" 
d="M1006 0h-188v124q-92 -80 -169.5 -117.5t-169.5 -37.5q-75 0 -139 25t-111 75q-101 109 -101 323v725h188v-636q0 -97 7 -152.5t29 -97.5q24 -44 63.5 -63.5t112.5 -19.5q66 0 143.5 37.5t146.5 97.5v834h188v-1117z" />
    <glyph glyph-name="v" unicode="v" horiz-adv-x="1020" 
d="M1014 1117l-421 -1117h-169l-418 1117h203l306 -862l303 862h196z" />
    <glyph glyph-name="w" unicode="w" horiz-adv-x="1520" 
d="M1490 1117l-283 -1117h-174l-273 861l-271 -861h-173l-286 1117h196l197 -865l265 865h155l272 -865l186 865h189z" />
    <glyph glyph-name="x" unicode="x" horiz-adv-x="1014" 
d="M1004 0h-231l-271 422l-279 -422h-213l388 554l-384 563h231l269 -418l276 418h214l-386 -550z" />
    <glyph glyph-name="y" unicode="y" horiz-adv-x="1020" 
d="M1014 1117l-601 -1529h-201l200 466l-406 1063h203l305 -827l304 827h196z" />
    <glyph glyph-name="z" unicode="z" horiz-adv-x="910" 
d="M870 0h-821v139l584 823h-560v155h786v-134l-587 -826h598v-157z" />
    <glyph glyph-name="braceleft" unicode="{" horiz-adv-x="698" 
d="M240 727l1 772h397v-155h-194l1 -464v-71q0 -47 -9 -73t-32 -49t-83 -73q-40 -31 -81 -67q24 -21 81 -68q60 -50 83 -73t32 -49t9 -73v-71l-1 -460h194v-155h-397l-1 758l-137 102v159z" />
    <glyph glyph-name="bar" unicode="|" horiz-adv-x="342" 
d="M102 1541h138v-1931h-138v1931z" />
    <glyph glyph-name="braceright" unicode="}" horiz-adv-x="761" 
d="M638 458l-137 -102l-1 -758h-397v155h194l-1 460v71q0 47 9 73t32 49t83 73q57 47 81 68q-41 36 -81 67q-60 50 -83 73t-32 49t-9 73v71l1 464h-194v155h397l1 -772l137 -110v-159z" />
    <glyph glyph-name="asciitilde" unicode="~" horiz-adv-x="1154" 
d="M108 454q60 51 136 78t155 27q61 0 105.5 -14.5t101.5 -43.5t99 -43t100 -14q84 0 173 52l68 -100q-106 -82 -230 -82q-60 0 -104.5 15.5t-106.5 47.5q-56 30 -98 44.5t-97 14.5q-114 0 -242 -84z" />
    <glyph glyph-name="uni00A0" unicode="&#xa0;" horiz-adv-x="468" 
 />
    <glyph glyph-name="exclamdown" unicode="&#xa1;" horiz-adv-x="680" 
d="M472 1248h-264v271h264v-271zM226 1079h226l30 -1082h-284z" />
    <glyph glyph-name="cent" unicode="&#xa2;" horiz-adv-x="1118" 
d="M557 2q-215 25 -329 168.5t-114 386.5q0 157 53 277.5t153 192.5t237 88v360h114v-359q82 -3 162.5 -25t141.5 -54v-200h-10q-70 58 -139.5 93t-154.5 47v-836q47 5 96.5 22.5t85.5 38.5q61 36 112 79h10v-198q-80 -37 -147.5 -57t-156.5 -25v-362h-114v363zM557 971
q-118 -21 -184 -127t-66 -287q0 -183 66.5 -286.5t183.5 -124.5v825z" />
    <glyph glyph-name="sterling" unicode="&#xa3;" horiz-adv-x="1118" 
d="M1031 0h-942v207q74 22 118 70.5t64 130t20 205.5h-161v138h161v320q0 132 52.5 233.5t147.5 157.5t217 56q86 0 151 -12.5t142 -35.5v-206h-10q-57 41 -128 64t-136 23q-122 0 -183 -76.5t-61 -222.5v-301h364v-138h-364v-61q0 -116 -58 -211.5t-164 -158.5v-11h770
v-171z" />
    <glyph glyph-name="currency" unicode="&#xa4;" horiz-adv-x="1118" 
d="M1057 272l-106 -106l-214 212q-47 -28 -86 -40t-91 -12q-45 0 -91.5 14.5t-83.5 38.5l-215 -215l-105 109l212 213q-25 39 -38.5 86t-13.5 89q0 91 53 174l-213 216l107 106l214 -213q37 24 83 38t91 14q48 0 93.5 -14.5t82.5 -36.5l212 212l109 -105l-214 -216
q28 -44 40.5 -84.5t12.5 -90.5q0 -44 -14.5 -91t-38.5 -84zM726 759q-26 45 -70 72t-96 27q-51 0 -95 -26.5t-70.5 -72t-26.5 -98.5t26 -98t70 -72t96 -27q51 0 95 26.5t70.5 72t26.5 98.5t-26 98z" />
    <glyph glyph-name="yen" unicode="&#xa5;" horiz-adv-x="1118" 
d="M1059 1489l-408 -811v-100h342v-138h-340v-440h-188v440h-340v138h342v79l-411 832h210l294 -639l298 639h201z" />
    <glyph glyph-name="brokenbar" unicode="&#xa6;" horiz-adv-x="783" 
d="M475 758h-167v798h167v-798zM475 -392h-167v798h167v-798z" />
    <glyph glyph-name="section" unicode="&#xa7;" horiz-adv-x="1118" 
d="M182 -133q70 -34 139 -57q51 -16 91 -23t97 -7q118 0 192.5 48t74.5 136q0 53 -18 86.5t-60 60.5q-41 25 -103 43l-39 11q-79 21 -138.5 39.5t-103.5 38.5q-61 27 -106.5 69.5t-66.5 94.5q-22 53 -22 126q0 96 50 180t149 145v7q-88 49 -129 119t-41 163q0 112 58 196
t166 130t256 46q84 0 156 -13t162 -44v-194h-10q-91 46 -168.5 66.5t-160.5 20.5q-116 0 -191.5 -47t-75.5 -132q0 -55 20 -91.5t60 -60.5q36 -22 90.5 -40t146.5 -42q124 -34 198 -79t108.5 -108.5t34.5 -153.5q0 -104 -52.5 -186t-146.5 -138v-7q170 -89 170 -280
q0 -75 -32 -146t-89 -118q-64 -55 -151 -83t-207 -28q-157 0 -318 58v194h10zM798 473q12 32 12 82q0 93 -54 144q-23 22 -54 37.5t-76 29.5l-77 23q-44 12 -99 30q-46 -28 -89 -81q-22 -28 -37.5 -72t-15.5 -87q0 -56 16.5 -94t56 -66t111.5 -50q62 -18 175 -54
q56 36 92 86q27 40 39 72z" />
    <glyph glyph-name="copyright" unicode="&#xa9;" horiz-adv-x="1902" 
d="M1699.5 221.5q-116.5 -198.5 -315 -315t-433.5 -116.5t-433.5 116.5t-315 315t-116.5 433.5t116.5 433t315 314.5t433.5 116.5t433.5 -116.5t315 -314.5t116.5 -433t-116.5 -433.5zM1600 1033q-101 173 -273 274.5t-375 101.5t-375 -101.5t-273 -274.5t-101 -378
t101 -378.5t273 -275t375 -101.5t375 101.5t273 275t101 378.5t-101 378zM1274 255q-84 -38 -147 -56.5t-145 -18.5q-140 0 -241 55.5t-155.5 163t-54.5 261.5q0 151 56.5 260t158.5 166t236 57q78 0 153.5 -20.5t138.5 -52.5v-181h-16q-47 42 -123.5 74.5t-148.5 32.5
q-127 0 -198.5 -84.5t-71.5 -251.5q0 -162 70 -247.5t200 -85.5q76 0 151 33t121 74h16v-179z" />
    <glyph glyph-name="ordfeminine" unicode="&#xaa;" horiz-adv-x="1010" 
d="M874 566h-166v91q-69 -55 -114 -76q-47 -21 -86.5 -30.5t-103.5 -9.5q-82 0 -148 38t-104 106t-38 154q0 102 41.5 168t124.5 105q69 33 176 49t252 23v19q0 51 -16 83.5t-49 50.5q-47 28 -161 28q-111 0 -278 -61h-15v170q55 16 140.5 30.5t153.5 14.5q196 0 293.5 -78
t97.5 -247v-628zM708 1045q-210 -12 -288 -35q-134 -39 -134 -161q0 -75 44 -114t131 -39q68 0 126.5 28.5t120.5 77.5v243z" />
    <glyph glyph-name="guillemotleft" unicode="&#xab;" horiz-adv-x="1301" 
d="M164 317l305 455l188 -50l-195 -405l196 -407l-190 -48zM862 317l195 -406l-188 -51l-305 457l305 454l187 -49z" />
    <glyph glyph-name="logicalnot" unicode="&#xac;" horiz-adv-x="1490" 
d="M1323 57h-171v545h-995v160h1166v-705z" />
    <glyph glyph-name="registered" unicode="&#xae;" horiz-adv-x="1902" 
d="M1699.5 221.5q-116.5 -198.5 -315 -315t-433.5 -116.5t-433.5 116.5t-315 315t-116.5 433.5t116.5 433t315 314.5t433.5 116.5t433.5 -116.5t315 -314.5t116.5 -433t-116.5 -433.5zM1600 1033q-101 173 -273 274.5t-375 101.5t-375 -101.5t-273 -274.5t-101 -378
t101 -378.5t273 -275t375 -101.5t375 101.5t273 275t101 378.5t-101 378zM1448 215h-227l-283 355h-123v-355h-165v915h279q104 0 155 -8t104 -38q60 -34 87 -82t27 -123q0 -95 -53 -160.5t-147 -103.5zM1107.5 933q-12.5 27 -41.5 45q-24 15 -55 21t-81 6h-115v-309h98
q111 0 158 42q26 23 37.5 53t11.5 77q0 38 -12.5 65z" />
    <glyph glyph-name="degree" unicode="&#xb0;" horiz-adv-x="731" 
d="M236 959q-59 35 -93.5 94t-34.5 129t34.5 129t93.5 93.5t129 34.5t129.5 -34.5t94 -93.5t34.5 -129t-34.5 -129t-94 -94t-129.5 -35t-129 35zM448 1038.5q38 22.5 60.5 60.5t22.5 83t-22.5 83t-60.5 60t-83 22t-83 -22t-60.5 -60t-22.5 -83t22.5 -83t60.5 -60.5t83 -22.5
t83 22.5z" />
    <glyph glyph-name="plusminus" unicode="&#xb1;" horiz-adv-x="1490" 
d="M1328 159h-1166v158h500v422h-500v158h500v505h166v-505h500v-158h-500v-422h500v-158z" />
    <glyph glyph-name="uni00B2" unicode="&#xb2;" horiz-adv-x="1010" 
d="M866 566h-681v152l35 27q99 76 146 113t81 71q73 70 108.5 115.5t49.5 86t14 96.5q0 69 -43 106.5t-119 37.5q-64 0 -134.5 -28t-116.5 -64h-15v179q65 28 141.5 44.5t148.5 16.5q102 0 174.5 -35.5t110.5 -98.5t38 -146q0 -89 -41.5 -167.5t-145.5 -171.5
q-52 -46 -121 -97l-123 -93h493v-144z" />
    <glyph glyph-name="uni00B3" unicode="&#xb3;" horiz-adv-x="1010" 
d="M807.5 702q-29.5 -57 -78.5 -91q-53 -36 -114 -52.5t-141 -16.5q-154 0 -290 58v175h17q39 -37 116.5 -65.5t153.5 -28.5q87 0 140.5 37.5t53.5 107.5q0 73 -44.5 107.5t-146.5 34.5h-140v139h125q86 0 134 38t48 104q0 62 -42 96.5t-127 34.5q-64 0 -141 -30t-115 -67
h-17v175q67 28 142 44.5t151 16.5q99 0 172 -31.5t111.5 -86t38.5 -120.5q0 -84 -46.5 -141.5t-127.5 -84.5v-8q86 -17 141.5 -73.5t55.5 -145.5q0 -69 -29.5 -126z" />
    <glyph glyph-name="uni00B5" unicode="&#xb5;" horiz-adv-x="1163" 
d="M1027 0h-172v116h-6q-65 -69 -125.5 -101t-145.5 -32q-59 0 -101.5 15t-76 42t-76.5 75v-527h-188v1529h188v-842q93 -111 254 -111q87 0 149 27.5t112 83.5v842h188v-1117z" />
    <glyph glyph-name="paragraph" unicode="&#xb6;" horiz-adv-x="1118" 
d="M982 -363h-140v1722h-187v-1722h-140v956q-137 3 -240.5 60.5t-160.5 160t-57 236.5q0 138 58.5 236.5t171 150.5t273.5 52h422v-1852z" />
    <glyph glyph-name="uni00B9" unicode="&#xb9;" horiz-adv-x="1010" 
d="M811 566h-555v122h204v568h-212v112q49 0 97 6.5t71 18.5q33 17 49.5 39.5t19.5 60.5h135v-805h191v-122z" />
    <glyph glyph-name="ordmasculine" unicode="&#xba;" horiz-adv-x="1010" 
d="M873 766.5q-53 -110.5 -148 -168.5t-219 -58q-128 0 -223 59.5t-146.5 170t-51.5 260.5q0 153 53 263.5t148 168.5t220 58t220 -57.5t147.5 -167.5t52.5 -265q0 -153 -53 -263.5zM683 1284.5q-63 85.5 -177 85.5t-177.5 -85t-63.5 -255q0 -167 63 -253.5t178 -86.5
q113 0 176.5 87t63.5 253q0 169 -63 254.5z" />
    <glyph glyph-name="guillemotright" unicode="&#xbb;" horiz-adv-x="1233" 
d="M643 -90l196 407l-195 405l188 50l305 -455l-304 -455zM432 771l305 -454l-305 -457l-188 51l195 406l-194 405z" />
    <glyph glyph-name="onequarter" unicode="&#xbc;" horiz-adv-x="2048" 
d="M545 565h-165v681h-209v117q77 0 125 9t77 37.5t35 83.5h137v-928zM1410 1489l-780 -1489h-165l780 1489h165zM1847 220h-163v-220h-150v220h-455v185l456 539h149v-591h163v-133zM1538 353v400l-343 -400h343z" />
    <glyph glyph-name="onehalf" unicode="&#xbd;" horiz-adv-x="2048" 
d="M545 565h-165v681h-209v117q77 0 125 9t77 37.5t35 83.5h137v-928zM1410 1489l-780 -1489h-165l780 1489h165zM1946 0h-681v143l35 27q99 76 146 113t81 71q73 70 108.5 115.5t49.5 86t14 96.5q0 69 -43 106.5t-119 37.5q-64 0 -134.5 -28t-116.5 -64h-15v179
q65 28 141.5 44.5t148.5 16.5q102 0 174.5 -35.5t110.5 -98.5t38 -146q0 -104 -49 -182t-138 -157q-50 -45 -122 -97l-23 -16q-31 -24 -55 -42t-42 -31h491v-139z" />
    <glyph glyph-name="threequarters" unicode="&#xbe;" horiz-adv-x="2048" 
d="M763.5 700q-29.5 -57 -78.5 -91q-53 -36 -114 -52.5t-141 -16.5q-154 0 -290 58v175h17q39 -37 116.5 -65.5t153.5 -28.5q87 0 140.5 37.5t53.5 107.5q0 79 -47 110.5t-144 31.5h-140v139h125q86 0 134 38t48 104q0 62 -42 96.5t-127 34.5q-64 0 -141 -30t-115 -67h-17
v175q67 28 142 44.5t151 16.5q99 0 172 -31.5t111.5 -86t38.5 -120.5q0 -84 -46.5 -141.5t-127.5 -84.5v-8q86 -17 141.5 -73.5t55.5 -145.5q0 -69 -29.5 -126zM1500 1489l-780 -1489h-165l780 1489h165zM1903 220h-163v-220h-150v220h-455v185l456 539h149v-591h163v-133z
M1594 353v400l-343 -400h343z" />
    <glyph glyph-name="questiondown" unicode="&#xbf;" horiz-adv-x="970" 
d="M632 1278h-204v211h204v-211zM686 -11.5q-87 -18.5 -187 -18.5q-135 0 -234.5 47t-153 133t-53.5 200q0 119 45 204.5t123 151t218 155.5v228h179v-305q-131 -79 -203 -133t-115 -123t-43 -163q0 -110 69 -167t187 -57q91 0 183 32t149 71l11 -204q-88 -33 -175 -51.5z
" />
    <glyph glyph-name="Agrave" unicode="&#xc0;" horiz-adv-x="1228" 
d="M691 1600h-149l-273 374h243zM-10 0l502 1489h244l502 -1489h-209l-135 416h-569l-135 -416h-200zM839 585l-230 702l-229 -702h459z" />
    <glyph glyph-name="Aacute" unicode="&#xc1;" horiz-adv-x="1228" 
d="M962 2006l-273 -374h-149l179 374h243zM-10 0l502 1489h244l502 -1489h-209l-135 416h-569l-135 -416h-200zM839 585l-230 702l-229 -702h459z" />
    <glyph glyph-name="Acircumflex" unicode="&#xc2;" horiz-adv-x="1228" 
d="M940 1650h-159l-185 256l-184 -256h-155l228 379h227zM-10 0l502 1489h244l502 -1489h-209l-135 416h-569l-135 -416h-200zM839 585l-230 702l-229 -702h459z" />
    <glyph glyph-name="Atilde" unicode="&#xc3;" horiz-adv-x="1228" 
d="M1010 1965q-10 -154 -73.5 -233t-172.5 -79q-51 0 -95.5 19t-86.5 59q-48 45 -79 64.5t-60 19.5q-46 0 -67 -42.5t-25 -123.5h-140q4 100 37 170t87 105.5t121 35.5q50 0 93 -19t87 -58q44 -40 78.5 -60t62.5 -20q86 0 93 162h140zM-10 0l502 1489h244l502 -1489h-209
l-135 416h-569l-135 -416h-200zM839 585l-230 702l-229 -702h459z" />
    <glyph glyph-name="Adieresis" unicode="&#xc4;" horiz-adv-x="1228" 
d="M500 1657h-201v195h201v-195zM913 1657h-201v195h201v-195zM-10 0l502 1489h244l502 -1489h-209l-135 416h-569l-135 -416h-200zM839 585l-230 702l-229 -702h459z" />
    <glyph glyph-name="Aring" unicode="&#xc5;" horiz-adv-x="1228" 
d="M875.5 1533.5q-44.5 -69.5 -117.5 -108.5l480 -1425h-209l-135 416h-569l-135 -416h-200l479 1422q-74 41 -117.5 110t-43.5 153t40.5 153t111 108.5t154.5 39.5q85 0 155 -39.5t110.5 -108t40.5 -153.5q0 -82 -44.5 -151.5zM729 1805q-44 48 -115 48q-46 0 -82 -22
t-56.5 -61t-20.5 -87q0 -49 20.5 -88t57 -61t81.5 -22t81.5 22t57 61t20.5 88q0 74 -44 122zM839 584l-230 705l-229 -705h459z" />
    <glyph glyph-name="AE" unicode="&#xc6;" horiz-adv-x="1870" 
d="M1802 0h-912v557h-505l-217 -557h-207l603 1489h1238v-176h-716v-408h666v-176h-666v-553h716v-176zM890 723v601h-194l-245 -601h439z" />
    <glyph glyph-name="Ccedilla" unicode="&#xc7;" horiz-adv-x="1230" 
d="M464 22.5q-122 49.5 -211 145.5q-91 98 -139 243.5t-48 331.5q0 184 47 323.5t139 244.5q90 101 212 153t272 52q135 0 262 -39q94 -29 198 -87v-239h-16q-41 37 -78 66.5t-89 58.5q-63 34 -130 52.5t-149 18.5q-96 0 -181 -39.5t-148 -114.5q-64 -77 -98.5 -192.5
t-34.5 -257.5q0 -286 138 -450q61 -73 145 -111t179 -38q158 0 289 74q89 50 158 119h15v-236l-69 -33l-23 -11q-45 -22 -106 -41q-31 -11 -44 -13l3 -39q2 -32 2 -53q0 -99 -37 -175t-107 -117.5t-165 -41.5q-40 0 -89.5 6.5t-87.5 17.5v160h9q29 -13 67.5 -23.5
t74.5 -10.5q94 0 138 39.5t44 126.5q0 17 -2 83l-33 -2q-11 -1 -38 -1q-147 0 -269 49.5z" />
    <glyph glyph-name="Egrave" unicode="&#xc8;" horiz-adv-x="1149" 
d="M754 1675h-149l-273 374h243zM151 0v1489h931v-176h-733v-408h683v-176h-683v-553h733v-176h-931z" />
    <glyph glyph-name="Eacute" unicode="&#xc9;" horiz-adv-x="1149" 
d="M920 2049l-273 -374h-149l179 374h243zM151 0v1489h931v-176h-733v-408h683v-176h-683v-553h733v-176h-931z" />
    <glyph glyph-name="Ecircumflex" unicode="&#xca;" horiz-adv-x="1149" 
d="M961 1670h-159l-185 256l-184 -256h-155l228 379h227zM151 0v1489h931v-176h-733v-408h683v-176h-683v-553h733v-176h-931z" />
    <glyph glyph-name="Edieresis" unicode="&#xcb;" horiz-adv-x="1149" 
d="M553 1677h-201v195h201v-195zM966 1677h-201v195h201v-195zM151 0v1489h931v-176h-733v-408h683v-176h-683v-553h733v-176h-931z" />
    <glyph glyph-name="Igrave" unicode="&#xcc;" horiz-adv-x="764" 
d="M529 1675h-149l-273 374h243zM671 0h-578v152h190v1185h-190v152h578v-152h-190v-1185h190v-152z" />
    <glyph glyph-name="Iacute" unicode="&#xcd;" horiz-adv-x="764" 
d="M657 2049l-273 -374h-149l179 374h243zM671 0h-578v152h190v1185h-190v152h578v-152h-190v-1185h190v-152z" />
    <glyph glyph-name="Icircumflex" unicode="&#xce;" horiz-adv-x="764" 
d="M725 1670h-159l-185 256l-184 -256h-155l228 379h227zM671 0h-578v152h190v1185h-190v152h578v-152h-190v-1185h190v-152z" />
    <glyph glyph-name="Idieresis" unicode="&#xcf;" horiz-adv-x="764" 
d="M277 1677h-201v195h201v-195zM690 1677h-201v195h201v-195zM671 0h-578v152h190v1185h-190v152h578v-152h-190v-1185h190v-152z" />
    <glyph glyph-name="Eth" unicode="&#xd0;" horiz-adv-x="1430" 
d="M1284.5 377.5q-81.5 -164.5 -222.5 -258.5q-73 -49 -147.5 -74.5t-162.5 -35t-217 -9.5h-343v740h-168v143h168v606h339q199 0 320.5 -29.5t212.5 -88.5q147 -97 224.5 -255t77.5 -373q0 -201 -81.5 -365.5zM1103 1039q-57 122 -169 190q-79 48 -169.5 69t-223.5 21h-151
v-436h327v-143h-327v-570h151q137 0 235 22.5t177 76.5q104 70 155.5 187.5t51.5 289.5q0 171 -57 293z" />
    <glyph glyph-name="Ntilde" unicode="&#xd1;" horiz-adv-x="1367" 
d="M1110 1985q-10 -154 -73.5 -233t-172.5 -79q-51 0 -95.5 19t-86.5 59q-48 45 -79 64.5t-60 19.5q-46 0 -67 -42.5t-25 -123.5h-140q4 100 37 170t87 105.5t121 35.5q50 0 93 -19t87 -58q44 -40 78.5 -60t62.5 -20q86 0 93 162h140zM1216 0h-222l-658 1284v-1284h-185
v1489h281l599 -1179v1179h185v-1489z" />
    <glyph glyph-name="Ograve" unicode="&#xd2;" horiz-adv-x="1449" 
d="M851 1675h-149l-273 374h243zM1336.5 1072.5q46.5 -145.5 46.5 -328.5q0 -180 -46 -326.5t-133 -245.5q-177 -203 -480 -203q-151 0 -272 51t-208 152q-87 100 -132.5 245t-45.5 327q0 362 179 574q86 99 207.5 150.5t271.5 51.5t272.5 -52.5t207.5 -149.5
q86 -100 132.5 -245.5zM1145.5 1004q-31.5 115 -90.5 191q-118 154 -330 154q-108 0 -188.5 -37.5t-142.5 -116.5q-59 -76 -90.5 -191.5t-31.5 -259.5q0 -193 55.5 -328.5t157.5 -205.5t240 -70t240 70t157 205.5t55 328.5q0 145 -31.5 260z" />
    <glyph glyph-name="Oacute" unicode="&#xd3;" horiz-adv-x="1449" 
d="M1002 2049l-273 -374h-149l179 374h243zM1336.5 1072.5q46.5 -145.5 46.5 -328.5q0 -180 -46 -326.5t-133 -245.5q-177 -203 -480 -203q-151 0 -272 51t-208 152q-87 100 -132.5 245t-45.5 327q0 362 179 574q86 99 207.5 150.5t271.5 51.5t272.5 -52.5t207.5 -149.5
q86 -100 132.5 -245.5zM1145.5 1004q-31.5 115 -90.5 191q-118 154 -330 154q-108 0 -188.5 -37.5t-142.5 -116.5q-59 -76 -90.5 -191.5t-31.5 -259.5q0 -193 55.5 -328.5t157.5 -205.5t240 -70t240 70t157 205.5t55 328.5q0 145 -31.5 260z" />
    <glyph glyph-name="Ocircumflex" unicode="&#xd4;" horiz-adv-x="1449" 
d="M1055 1670h-159l-185 256l-184 -256h-155l228 379h227zM1336.5 1072.5q46.5 -145.5 46.5 -328.5q0 -180 -46 -326.5t-133 -245.5q-177 -203 -480 -203q-151 0 -272 51t-208 152q-87 100 -132.5 245t-45.5 327q0 362 179 574q86 99 207.5 150.5t271.5 51.5t272.5 -52.5
t207.5 -149.5q86 -100 132.5 -245.5zM1145.5 1004q-31.5 115 -90.5 191q-118 154 -330 154q-108 0 -188.5 -37.5t-142.5 -116.5q-59 -76 -90.5 -191.5t-31.5 -259.5q0 -193 55.5 -328.5t157.5 -205.5t240 -70t240 70t157 205.5t55 328.5q0 145 -31.5 260z" />
    <glyph glyph-name="Otilde" unicode="&#xd5;" horiz-adv-x="1449" 
d="M1110 1985q-10 -154 -73.5 -233t-172.5 -79q-51 0 -95.5 19t-86.5 59q-48 45 -79 64.5t-60 19.5q-46 0 -67 -42.5t-25 -123.5h-140q4 100 37 170t87 105.5t121 35.5q50 0 93 -19t87 -58q44 -40 78.5 -60t62.5 -20q86 0 93 162h140zM1336.5 1072.5
q46.5 -145.5 46.5 -328.5q0 -180 -46 -326.5t-133 -245.5q-177 -203 -480 -203q-151 0 -272 51t-208 152q-87 100 -132.5 245t-45.5 327q0 362 179 574q86 99 207.5 150.5t271.5 51.5t272.5 -52.5t207.5 -149.5q86 -100 132.5 -245.5zM1145.5 1004q-31.5 115 -90.5 191
q-118 154 -330 154q-108 0 -188.5 -37.5t-142.5 -116.5q-59 -76 -90.5 -191.5t-31.5 -259.5q0 -193 55.5 -328.5t157.5 -205.5t240 -70t240 70t157 205.5t55 328.5q0 145 -31.5 260z" />
    <glyph glyph-name="Odieresis" unicode="&#xd6;" horiz-adv-x="1449" 
d="M614 1677h-201v195h201v-195zM1027 1677h-201v195h201v-195zM1336.5 1072.5q46.5 -145.5 46.5 -328.5q0 -180 -46 -326.5t-133 -245.5q-177 -203 -480 -203q-151 0 -272 51t-208 152q-87 100 -132.5 245t-45.5 327q0 362 179 574q86 99 207.5 150.5t271.5 51.5
t272.5 -52.5t207.5 -149.5q86 -100 132.5 -245.5zM1145.5 1004q-31.5 115 -90.5 191q-118 154 -330 154q-108 0 -188.5 -37.5t-142.5 -116.5q-59 -76 -90.5 -191.5t-31.5 -259.5q0 -193 55.5 -328.5t157.5 -205.5t240 -70t240 70t157 205.5t55 328.5q0 145 -31.5 260z" />
    <glyph glyph-name="multiply" unicode="&#xd7;" horiz-adv-x="1110" 
d="M108 48l362 404l-333 374l96 83l322 -360l323 360l97 -83l-333 -374l360 -402l-104 -80l-342 386l-343 -385z" />
    <glyph glyph-name="Oslash" unicode="&#xd8;" horiz-adv-x="1449" 
d="M1302 327.5q-81 -174.5 -230 -266.5t-348 -92q-215 0 -376 111l-132 -196h-148l189 278q-92 101 -141.5 248t-49.5 334q0 242 81.5 417t230 267t346.5 92q112 0 201.5 -27t171.5 -83l115 171h148l-171 -251q194 -213 194 -586q0 -242 -81 -416.5zM995 1260
q-104 89 -270 89q-139 0 -241.5 -69.5t-158 -205t-55.5 -330.5q0 -261 99 -420zM1152 986.5q-27 108.5 -74 182.5l-628 -937q59 -47 123 -69.5t152 -22.5q138 0 240.5 70t158 206t55.5 328q0 134 -27 242.5z" />
    <glyph glyph-name="Ugrave" unicode="&#xd9;" horiz-adv-x="1343" 
d="M854 1675h-149l-273 374h243zM275 106q-77 77 -109.5 184.5t-32.5 269.5v929h198v-929q0 -108 13.5 -177t50.5 -123q81 -122 276 -122q94 0 166 31.5t111 90.5q36 55 50 123.5t14 171.5v934h198v-929q0 -160 -32.5 -269.5t-109.5 -184.5q-72 -70 -167 -103.5t-230 -33.5
q-257 0 -396 137z" />
    <glyph glyph-name="Uacute" unicode="&#xda;" horiz-adv-x="1343" 
d="M995 2049l-273 -374h-149l179 374h243zM275 106q-77 77 -109.5 184.5t-32.5 269.5v929h198v-929q0 -108 13.5 -177t50.5 -123q81 -122 276 -122q94 0 166 31.5t111 90.5q36 55 50 123.5t14 171.5v934h198v-929q0 -160 -32.5 -269.5t-109.5 -184.5q-72 -70 -167 -103.5
t-230 -33.5q-257 0 -396 137z" />
    <glyph glyph-name="Ucircumflex" unicode="&#xdb;" horiz-adv-x="1343" 
d="M1006 1670h-159l-185 256l-184 -256h-155l228 379h227zM275 106q-77 77 -109.5 184.5t-32.5 269.5v929h198v-929q0 -108 13.5 -177t50.5 -123q81 -122 276 -122q94 0 166 31.5t111 90.5q36 55 50 123.5t14 171.5v934h198v-929q0 -160 -32.5 -269.5t-109.5 -184.5
q-72 -70 -167 -103.5t-230 -33.5q-257 0 -396 137z" />
    <glyph glyph-name="Udieresis" unicode="&#xdc;" horiz-adv-x="1343" 
d="M591 1677h-201v195h201v-195zM1004 1677h-201v195h201v-195zM275 106q-77 77 -109.5 184.5t-32.5 269.5v929h198v-929q0 -108 13.5 -177t50.5 -123q81 -122 276 -122q94 0 166 31.5t111 90.5q36 55 50 123.5t14 171.5v934h198v-929q0 -160 -32.5 -269.5t-109.5 -184.5
q-72 -70 -167 -103.5t-230 -33.5q-257 0 -396 137z" />
    <glyph glyph-name="Yacute" unicode="&#xdd;" horiz-adv-x="1180" 
d="M891 2049l-273 -374h-149l179 374h243zM1193 1489l-503 -830v-659h-198v638l-503 851h220l384 -657l390 657h210z" />
    <glyph glyph-name="Thorn" unicode="&#xde;" horiz-adv-x="1158" 
d="M1060 610.5q-35 -84.5 -95 -141.5q-78 -75 -187.5 -111t-260.5 -36h-168v-322h-198v1489h198v-270h175q260 0 394 -89q177 -113 177 -343q0 -92 -35 -176.5zM862.5 908q-26.5 53 -81.5 88q-47 29 -110.5 42t-155.5 13h-166v-563h137q119 0 195 20.5t123 65.5
q44 41 64.5 91.5t20.5 116.5q0 73 -26.5 126z" />
    <glyph glyph-name="germandbls" unicode="&#xdf;" horiz-adv-x="1123" 
d="M1006.5 222q-61.5 -115 -172 -180.5t-252.5 -65.5q-25 0 -62.5 3t-59.5 7v166h10q57 -17 120 -17q75 0 130 26.5t89 75.5q35 50 49.5 109.5t14.5 142.5q0 167 -102 247.5t-305 80.5v157q156 0 235.5 59t79.5 189q0 36 -10.5 71t-33.5 61q-53 64 -159 64q-56 0 -98 -15.5
t-79 -53.5t-57 -104.5t-20 -158.5v-1086h-188v1080q0 125 33 214t96 154q59 59 140.5 88.5t176.5 29.5q113 0 201.5 -38.5t139 -112t50.5 -174.5q0 -74 -32 -139.5t-90 -113.5t-133 -69v-9q166 -37 258 -148t92 -281q0 -144 -61.5 -259z" />
    <glyph glyph-name="agrave" unicode="&#xe0;" horiz-adv-x="1075" 
d="M668 1302h-149l-273 374h243zM760 119q-27 -20 -61 -47q-76 -60 -171 -89q-48 -14 -131 -14q-69 0 -130.5 25.5t-109.5 73.5q-46 46 -72.5 114t-26.5 142q0 118 49.5 199t154.5 128q86 39 204.5 56.5t293.5 27.5v36q0 123 -76 169q-59 38 -195 38q-67 0 -155 -20
t-174 -56h-11v191q65 19 160 35t181 16q118 0 196.5 -18.5t139.5 -64.5t91 -119t30 -178v-764h-187v119zM760 585l-20 -2q-103 -9 -183.5 -19t-131.5 -25q-173 -54 -173 -203q0 -96 54 -145t158 -49q83 0 154 35t142 98v310z" />
    <glyph glyph-name="aacute" unicode="&#xe1;" horiz-adv-x="1075" 
d="M837 1676l-273 -374h-149l179 374h243zM760 119q-27 -20 -61 -47q-76 -60 -171 -89q-48 -14 -131 -14q-69 0 -130.5 25.5t-109.5 73.5q-46 46 -72.5 114t-26.5 142q0 118 49.5 199t154.5 128q86 39 204.5 56.5t293.5 27.5v36q0 123 -76 169q-59 38 -195 38
q-67 0 -155 -20t-174 -56h-11v191q65 19 160 35t181 16q118 0 196.5 -18.5t139.5 -64.5t91 -119t30 -178v-764h-187v119zM760 585l-20 -2q-103 -9 -183.5 -19t-131.5 -25q-173 -54 -173 -203q0 -96 54 -145t158 -49q83 0 154 35t142 98v310z" />
    <glyph glyph-name="acircumflex" unicode="&#xe2;" horiz-adv-x="1075" 
d="M876 1297h-159l-185 256l-184 -256h-155l228 379h227zM760 119q-27 -20 -61 -47q-76 -60 -171 -89q-48 -14 -131 -14q-69 0 -130.5 25.5t-109.5 73.5q-46 46 -72.5 114t-26.5 142q0 118 49.5 199t154.5 128q86 39 204.5 56.5t293.5 27.5v36q0 123 -76 169q-59 38 -195 38
q-67 0 -155 -20t-174 -56h-11v191q65 19 160 35t181 16q118 0 196.5 -18.5t139.5 -64.5t91 -119t30 -178v-764h-187v119zM760 585l-20 -2q-103 -9 -183.5 -19t-131.5 -25q-173 -54 -173 -203q0 -96 54 -145t158 -49q83 0 154 35t142 98v310z" />
    <glyph glyph-name="atilde" unicode="&#xe3;" horiz-adv-x="1075" 
d="M933 1632q-10 -154 -73.5 -233t-172.5 -79q-51 0 -95.5 19t-86.5 59q-48 45 -79 64.5t-60 19.5q-46 0 -67 -42.5t-25 -123.5h-140q4 100 37 170t87 105.5t121 35.5q50 0 93 -19t87 -58q44 -40 78.5 -60t62.5 -20q86 0 93 162h140zM760 119q-27 -20 -61 -47
q-76 -60 -171 -89q-48 -14 -131 -14q-69 0 -130.5 25.5t-109.5 73.5q-46 46 -72.5 114t-26.5 142q0 118 49.5 199t154.5 128q86 39 204.5 56.5t293.5 27.5v36q0 123 -76 169q-59 38 -195 38q-67 0 -155 -20t-174 -56h-11v191q65 19 160 35t181 16q118 0 196.5 -18.5
t139.5 -64.5t91 -119t30 -178v-764h-187v119zM760 585l-20 -2q-103 -9 -183.5 -19t-131.5 -25q-173 -54 -173 -203q0 -96 54 -145t158 -49q83 0 154 35t142 98v310z" />
    <glyph glyph-name="adieresis" unicode="&#xe4;" horiz-adv-x="1075" 
d="M422 1304h-201v195h201v-195zM835 1304h-201v195h201v-195zM760 119q-27 -20 -61 -47q-76 -60 -171 -89q-48 -14 -131 -14q-69 0 -130.5 25.5t-109.5 73.5q-46 46 -72.5 114t-26.5 142q0 118 49.5 199t154.5 128q86 39 204.5 56.5t293.5 27.5v36q0 123 -76 169
q-59 38 -195 38q-67 0 -155 -20t-174 -56h-11v191q65 19 160 35t181 16q118 0 196.5 -18.5t139.5 -64.5t91 -119t30 -178v-764h-187v119zM760 585l-20 -2q-103 -9 -183.5 -19t-131.5 -25q-173 -54 -173 -203q0 -96 54 -145t158 -49q83 0 154 35t142 98v310z" />
    <glyph glyph-name="aring" unicode="&#xe5;" horiz-adv-x="1075" 
d="M760 119q-27 -20 -61 -47q-79 -61 -171 -89q-48 -14 -131 -14q-69 0 -130.5 25.5t-109.5 73.5q-46 46 -72.5 114t-26.5 142q0 118 49.5 199t154.5 128q86 39 204.5 56.5t293.5 27.5v36q0 123 -76 169q-59 38 -195 38q-82 0 -191 -29q-64 -17 -138 -47h-11v191
q117 35 277 46q-93 37 -149.5 111.5t-56.5 170.5q0 84 40.5 153t111 108.5t154.5 39.5q85 0 155 -39.5t110.5 -108t40.5 -153.5q0 -98 -60 -175.5t-158 -111.5q167 -23 246 -107q44 -47 65.5 -111t21.5 -152v-764h-187v119zM641 1542q-44 48 -115 48q-46 0 -82 -22
t-56.5 -61t-20.5 -87q0 -49 20.5 -88t57 -61.5t81.5 -22.5t81.5 22.5t57 61.5t20.5 88q0 74 -44 122zM760 585l-20 -2q-103 -9 -183.5 -19t-131.5 -25q-173 -54 -173 -203q0 -96 54 -145t158 -49q83 0 154 35t142 98v310z" />
    <glyph glyph-name="ae" unicode="&#xe6;" horiz-adv-x="1802" 
d="M1462.5 152q60.5 14 109.5 36q89 40 144 85h11v-205q-13 -4 -30 -12q-104 -40 -141 -51q-62 -17 -105.5 -24t-108.5 -7q-160 0 -275 51.5t-190 155.5l-64 -59q-94 -87 -226 -129q-69 -22 -180 -22q-97 0 -176.5 44.5t-126 123.5t-46.5 178q0 125 51 201t152 120
q84 36 214 50t311 18v58q0 125 -82 175q-68 41 -204 41q-74 0 -167.5 -24.5t-161.5 -53.5h-15v191q62 18 163 35.5t182 17.5q156 0 257 -47t156 -137q69 85 168.5 135.5t213.5 50.5q221 0 337 -133t116 -374v-82h-788q0 -220 113 -328q99 -93 266 -93q62 0 122.5 14z
M1567 703q-12 138 -68 205q-32 39 -86.5 62t-125.5 23q-75 0 -127 -20.5t-97 -63.5q-39 -37 -64 -91t-35 -115h603zM778 558q-135 -4 -214 -10t-145 -25q-168 -46 -168 -193q0 -188 223 -188q89 0 182.5 43t160.5 113q-39 112 -39 260z" />
    <glyph glyph-name="ccedilla" unicode="&#xe7;" horiz-adv-x="945" 
d="M368 11q-96 36 -164 107q-70 73 -107.5 183.5t-37.5 255.5q0 274 145 434q66 73 164.5 112.5t211.5 39.5q86 0 170.5 -24t159.5 -62v-211h-11q-53 45 -128 84q-41 21 -94 35.5t-100 14.5q-98 0 -170.5 -50t-112.5 -145t-40 -228q0 -131 38.5 -225.5t111 -144t173.5 -49.5
q89 0 172 36.5t150 99.5h11v-211q-90 -41 -133 -55l3 -42q2 -34 2 -55q0 -99 -37 -175t-107 -117.5t-165 -41.5q-40 0 -89.5 6.5t-87.5 17.5v160h9q29 -13 67.5 -23.5t74.5 -10.5q94 0 138 39.5t44 126.5q0 18 -2 84q-16 0 -22 -1q-7 -1 -25 -1q-116 0 -212 36z" />
    <glyph glyph-name="egrave" unicode="&#xe8;" horiz-adv-x="1078" 
d="M685 1302h-149l-273 374h243zM317.5 41.5q-126.5 67.5 -192.5 197.5t-66 313q0 180 65 315t182 208t270 73q105 0 184.5 -30.5t139.5 -93.5q62 -65 93 -158.5t31 -224.5v-102h-774q0 -193 97 -297t272 -104q60 0 119 13.5t110 36.5q89 40 144 85h11v-205l-82 -32
q-90 -36 -187 -54q-48 -8 -113 -8q-177 0 -303.5 67.5zM841 683q-4 148 -64 224q-68 86 -212 86q-73 0 -126 -22t-97 -66q-42 -44 -64 -97.5t-28 -124.5h591z" />
    <glyph glyph-name="eacute" unicode="&#xe9;" horiz-adv-x="1078" 
d="M889 1676l-273 -374h-149l179 374h243zM317.5 41.5q-126.5 67.5 -192.5 197.5t-66 313q0 180 65 315t182 208t270 73q105 0 184.5 -30.5t139.5 -93.5q62 -65 93 -158.5t31 -224.5v-102h-774q0 -193 97 -297t272 -104q60 0 119 13.5t110 36.5q89 40 144 85h11v-205
l-82 -32q-90 -36 -187 -54q-48 -8 -113 -8q-177 0 -303.5 67.5zM841 683q-4 148 -64 224q-68 86 -212 86q-73 0 -126 -22t-97 -66q-42 -44 -64 -97.5t-28 -124.5h591z" />
    <glyph glyph-name="ecircumflex" unicode="&#xea;" horiz-adv-x="1078" 
d="M915 1297h-159l-185 256l-184 -256h-155l228 379h227zM317.5 41.5q-126.5 67.5 -192.5 197.5t-66 313q0 180 65 315t182 208t270 73q105 0 184.5 -30.5t139.5 -93.5q62 -65 93 -158.5t31 -224.5v-102h-774q0 -193 97 -297t272 -104q60 0 119 13.5t110 36.5q89 40 144 85
h11v-205l-82 -32q-90 -36 -187 -54q-48 -8 -113 -8q-177 0 -303.5 67.5zM841 683q-4 148 -64 224q-68 86 -212 86q-73 0 -126 -22t-97 -66q-42 -44 -64 -97.5t-28 -124.5h591z" />
    <glyph glyph-name="edieresis" unicode="&#xeb;" horiz-adv-x="1078" 
d="M467 1304h-201v195h201v-195zM880 1304h-201v195h201v-195zM317.5 41.5q-126.5 67.5 -192.5 197.5t-66 313q0 180 65 315t182 208t270 73q105 0 184.5 -30.5t139.5 -93.5q62 -65 93 -158.5t31 -224.5v-102h-774q0 -193 97 -297t272 -104q60 0 119 13.5t110 36.5
q89 40 144 85h11v-205l-82 -32q-90 -36 -187 -54q-48 -8 -113 -8q-177 0 -303.5 67.5zM841 683q-4 148 -64 224q-68 86 -212 86q-73 0 -126 -22t-97 -66q-42 -44 -64 -97.5t-28 -124.5h591z" />
    <glyph glyph-name="igrave" unicode="&#xec;" horiz-adv-x="468" 
d="M421 1302h-149l-273 374h243zM328 0h-188v1117h188v-1117z" />
    <glyph glyph-name="iacute" unicode="&#xed;" horiz-adv-x="468" 
d="M542 1676l-273 -374h-149l179 374h243zM328 0h-188v1117h188v-1117z" />
    <glyph glyph-name="icircumflex" unicode="&#xee;" horiz-adv-x="468" 
d="M521 1297h-151l-139 263l-138 -263h-147l174 379h227zM328 0h-188v1117h188v-1117z" />
    <glyph glyph-name="idieresis" unicode="&#xef;" horiz-adv-x="468" 
d="M151 1304h-189v195h189v-195zM506 1304h-189v195h189v-195zM328 0h-188v1117h188v-1117z" />
    <glyph glyph-name="eth" unicode="&#xf0;" horiz-adv-x="1118" 
d="M992 274q-61 -150 -175 -227.5t-270 -77.5q-144 0 -255 59.5t-173 175t-62 280.5q0 149 62 260.5t167.5 170.5t231.5 59q96 0 169.5 -25t161.5 -81q-31 111 -97.5 220t-145.5 179l-262 -161l-66 97l238 143q-62 52 -118.5 85.5t-145.5 77.5l-53 26v21h296l80 -59
q31 -24 82 -60l212 129l66 -97l-190 -111q143 -143 225.5 -319.5t82.5 -401.5q0 -213 -61 -363zM841 375q23 86 23 229q0 50 -5 117q-140 88 -307 88q-87 0 -154.5 -36t-106.5 -109.5t-39 -181.5q0 -176 78.5 -265t217.5 -89q145 0 221 98q49 63 72 149z" />
    <glyph glyph-name="ntilde" unicode="&#xf1;" horiz-adv-x="1142" 
d="M978 1632q-10 -154 -73.5 -233t-172.5 -79q-51 0 -95.5 19t-86.5 59q-48 45 -79 64.5t-60 19.5q-46 0 -67 -42.5t-25 -123.5h-140q4 100 37 170t87 105.5t121 35.5q50 0 93 -19t87 -58q44 -40 78.5 -60t62.5 -20q86 0 93 162h140zM1014 0h-188v636q0 182 -36 250
q-24 43 -65 63t-111 20q-67 0 -141 -36t-149 -99v-834h-188v1117h188v-124q87 78 169 116.5t170 38.5q167 0 259 -109.5t92 -313.5v-725z" />
    <glyph glyph-name="ograve" unicode="&#xf2;" horiz-adv-x="1112" 
d="M667 1302h-149l-273 374h243zM993.5 240q-61.5 -133 -173.5 -202t-263 -69q-154 0 -267 71.5t-173 204.5t-60 313q0 184 62 317t175 203t263 70q151 0 263 -69.5t173.5 -202.5t61.5 -318t-61.5 -318zM783 879q-78 107 -226 107q-149 0 -227.5 -107t-78.5 -321
q0 -209 79 -318t227 -109q147 0 225.5 108t78.5 319q0 214 -78 321z" />
    <glyph glyph-name="oacute" unicode="&#xf3;" horiz-adv-x="1112" 
d="M868 1676l-273 -374h-149l179 374h243zM993.5 240q-61.5 -133 -173.5 -202t-263 -69q-154 0 -267 71.5t-173 204.5t-60 313q0 184 62 317t175 203t263 70q151 0 263 -69.5t173.5 -202.5t61.5 -318t-61.5 -318zM783 879q-78 107 -226 107q-149 0 -227.5 -107t-78.5 -321
q0 -209 79 -318t227 -109q147 0 225.5 108t78.5 319q0 214 -78 321z" />
    <glyph glyph-name="ocircumflex" unicode="&#xf4;" horiz-adv-x="1112" 
d="M900 1297h-159l-185 256l-184 -256h-155l228 379h227zM993.5 240q-61.5 -133 -173.5 -202t-263 -69q-154 0 -267 71.5t-173 204.5t-60 313q0 184 62 317t175 203t263 70q151 0 263 -69.5t173.5 -202.5t61.5 -318t-61.5 -318zM783 879q-78 107 -226 107
q-149 0 -227.5 -107t-78.5 -321q0 -209 79 -318t227 -109q147 0 225.5 108t78.5 319q0 214 -78 321z" />
    <glyph glyph-name="otilde" unicode="&#xf5;" horiz-adv-x="1112" 
d="M957 1632q-10 -154 -73.5 -233t-172.5 -79q-51 0 -95.5 19t-86.5 59q-48 45 -79 64.5t-60 19.5q-46 0 -67 -42.5t-25 -123.5h-140q4 100 37 170t87 105.5t121 35.5q50 0 93 -19t87 -58q44 -40 78.5 -60t62.5 -20q86 0 93 162h140zM993.5 240q-61.5 -133 -173.5 -202
t-263 -69q-154 0 -267 71.5t-173 204.5t-60 313q0 184 62 317t175 203t263 70q151 0 263 -69.5t173.5 -202.5t61.5 -318t-61.5 -318zM783 879q-78 107 -226 107q-149 0 -227.5 -107t-78.5 -321q0 -209 79 -318t227 -109q147 0 225.5 108t78.5 319q0 214 -78 321z" />
    <glyph glyph-name="odieresis" unicode="&#xf6;" horiz-adv-x="1112" 
d="M451 1304h-201v195h201v-195zM864 1304h-201v195h201v-195zM993.5 240q-61.5 -133 -173.5 -202t-263 -69q-154 0 -267 71.5t-173 204.5t-60 313q0 184 62 317t175 203t263 70q151 0 263 -69.5t173.5 -202.5t61.5 -318t-61.5 -318zM783 879q-78 107 -226 107
q-149 0 -227.5 -107t-78.5 -321q0 -209 79 -318t227 -109q147 0 225.5 108t78.5 319q0 214 -78 321z" />
    <glyph glyph-name="divide" unicode="&#xf7;" horiz-adv-x="1070" 
d="M478.5 780q-27.5 28 -27.5 67q0 38 27.5 65.5t66.5 27.5t66.5 -27.5t27.5 -65.5q0 -39 -27.5 -67t-66.5 -28t-66.5 28zM108 488h854v-151h-854v151zM479 -32.5q-28 27.5 -28 64.5q0 40 27.5 68t66.5 28t66.5 -28t27.5 -68q0 -37 -28 -64.5t-66 -27.5t-66 27.5z" />
    <glyph glyph-name="oslash" unicode="&#xf8;" horiz-adv-x="1112" 
d="M993.5 240.5q-61.5 -132.5 -173.5 -201.5t-263 -69q-145 0 -269 77l-123 -194h-124l168 261q-74 77 -113 189t-39 255q0 184 62 316.5t175 202.5t263 70q147 0 266 -77l108 170h125l-152 -236q151 -164 151 -446q0 -185 -61.5 -317.5zM735 932q-69 54 -178 54
q-149 0 -229 -108.5t-80 -319.5q0 -189 58 -296zM807 856l-429 -669q39 -30 80.5 -43t98.5 -13q147 0 227 108t80 319q0 193 -57 298z" />
    <glyph glyph-name="ugrave" unicode="&#xf9;" horiz-adv-x="1142" 
d="M687 1302h-149l-273 374h243zM1006 0h-188v124q-92 -80 -169.5 -117.5t-169.5 -37.5q-75 0 -139 25t-111 75q-101 109 -101 323v725h188v-636q0 -97 7 -152.5t29 -97.5q24 -44 63.5 -63.5t112.5 -19.5q66 0 143.5 37.5t146.5 97.5v834h188v-1117z" />
    <glyph glyph-name="uacute" unicode="&#xfa;" horiz-adv-x="1142" 
d="M868 1676l-273 -374h-149l179 374h243zM1006 0h-188v124q-92 -80 -169.5 -117.5t-169.5 -37.5q-75 0 -139 25t-111 75q-101 109 -101 323v725h188v-636q0 -97 7 -152.5t29 -97.5q24 -44 63.5 -63.5t112.5 -19.5q66 0 143.5 37.5t146.5 97.5v834h188v-1117z" />
    <glyph glyph-name="ucircumflex" unicode="&#xfb;" horiz-adv-x="1142" 
d="M908 1297h-159l-185 256l-184 -256h-155l228 379h227zM1006 0h-188v124q-92 -80 -169.5 -117.5t-169.5 -37.5q-75 0 -139 25t-111 75q-101 109 -101 323v725h188v-636q0 -97 7 -152.5t29 -97.5q24 -44 63.5 -63.5t112.5 -19.5q66 0 143.5 37.5t146.5 97.5v834h188v-1117z
" />
    <glyph glyph-name="udieresis" unicode="&#xfc;" horiz-adv-x="1142" 
d="M466 1304h-201v195h201v-195zM879 1304h-201v195h201v-195zM1006 0h-188v124q-92 -80 -169.5 -117.5t-169.5 -37.5q-75 0 -139 25t-111 75q-101 109 -101 323v725h188v-636q0 -97 7 -152.5t29 -97.5q24 -44 63.5 -63.5t112.5 -19.5q66 0 143.5 37.5t146.5 97.5v834h188
v-1117z" />
    <glyph glyph-name="yacute" unicode="&#xfd;" horiz-adv-x="1020" 
d="M811 1676l-273 -374h-149l179 374h243zM1014 1117l-601 -1529h-201l200 466l-406 1063h203l305 -827l304 827h196z" />
    <glyph glyph-name="thorn" unicode="&#xfe;" horiz-adv-x="1132" 
d="M1012.5 267q-60.5 -138 -167.5 -213.5t-243 -75.5q-81 0 -145 18.5t-133 59.5v-468h-188v1968h188v-556q164 148 342 148q126 0 218 -68.5t140.5 -195t48.5 -296.5q0 -183 -60.5 -321zM816.5 866.5q-62.5 102.5 -196.5 102.5q-145 0 -296 -127v-633q74 -36 126.5 -49
t120.5 -13q147 0 227.5 107.5t80.5 312.5q0 197 -62.5 299.5z" />
    <glyph glyph-name="ydieresis" unicode="&#xff;" horiz-adv-x="1020" 
d="M416 1304h-201v195h201v-195zM829 1304h-201v195h201v-195zM1014 1117l-601 -1529h-201l200 466l-406 1063h203l305 -827l304 827h196z" />
    <glyph glyph-name="Amacron" unicode="&#x100;" horiz-adv-x="1228" 
d="M991 1698h-754v154h754v-154zM-10 0l502 1489h244l502 -1489h-209l-135 416h-569l-135 -416h-200zM839 585l-230 702l-229 -702h459z" />
    <glyph glyph-name="amacron" unicode="&#x101;" horiz-adv-x="1075" 
d="M906 1335h-754v154h754v-154zM760 119q-27 -20 -61 -47q-76 -60 -171 -89q-48 -14 -131 -14q-69 0 -130.5 25.5t-109.5 73.5q-46 46 -72.5 114t-26.5 142q0 118 49.5 199t154.5 128q86 39 204.5 56.5t293.5 27.5v36q0 123 -76 169q-59 38 -195 38q-67 0 -155 -20
t-174 -56h-11v191q65 19 160 35t181 16q118 0 196.5 -18.5t139.5 -64.5t91 -119t30 -178v-764h-187v119zM760 585l-20 -2q-103 -9 -183.5 -19t-131.5 -25q-173 -54 -173 -203q0 -96 54 -145t158 -49q83 0 154 35t142 98v310z" />
    <glyph glyph-name="Abreve" unicode="&#x102;" horiz-adv-x="1228" 
d="M943 2009q0 -86 -21 -156.5t-60 -118.5q-46 -55 -103.5 -80.5t-144.5 -25.5q-160 0 -247 106q-41 50 -62 120t-21 155h162q0 -133 41.5 -193.5t126.5 -60.5q82 0 124.5 60.5t42.5 193.5h162zM-10 0l502 1489h244l502 -1489h-209l-135 416h-569l-135 -416h-200zM839 585
l-230 702l-229 -702h459z" />
    <glyph glyph-name="abreve" unicode="&#x103;" horiz-adv-x="1075" 
d="M852 1636q0 -86 -21 -156.5t-60 -118.5q-46 -55 -103.5 -80.5t-144.5 -25.5q-160 0 -247 106q-41 50 -62 120t-21 155h162q0 -133 41.5 -193.5t126.5 -60.5q82 0 124.5 60.5t42.5 193.5h162zM760 119q-27 -20 -61 -47q-76 -60 -171 -89q-48 -14 -131 -14
q-69 0 -130.5 25.5t-109.5 73.5q-46 46 -72.5 114t-26.5 142q0 118 49.5 199t154.5 128q86 39 204.5 56.5t293.5 27.5v36q0 123 -76 169q-59 38 -195 38q-67 0 -155 -20t-174 -56h-11v191q65 19 160 35t181 16q118 0 196.5 -18.5t139.5 -64.5t91 -119t30 -178v-764h-187v119
zM760 585l-20 -2q-103 -9 -183.5 -19t-131.5 -25q-173 -54 -173 -203q0 -96 54 -145t158 -49q83 0 154 35t142 98v310z" />
    <glyph glyph-name="Aogonek" unicode="&#x104;" horiz-adv-x="1228" 
d="M1248 -250v-140q-56 -23 -120 -23q-89 0 -139.5 46.5t-50.5 129.5q0 62 33 127t81 110h-23l-135 416h-569l-135 -416h-200l502 1489h244l502 -1489h-37q-46 -37 -77.5 -90.5t-31.5 -99.5q0 -34 19 -54t56 -20q38 0 70 14h11zM839 585l-230 702l-229 -702h459z" />
    <glyph glyph-name="aogonek" unicode="&#x105;" horiz-adv-x="1075" 
d="M972 -250v-140q-56 -23 -120 -23q-89 0 -139.5 46.5t-50.5 129.5q0 62 33 127t81 110h-16v119q-27 -20 -61 -47q-76 -60 -171 -89q-48 -14 -131 -14q-69 0 -130.5 25.5t-109.5 73.5q-46 46 -72.5 114t-26.5 142q0 118 49.5 199t154.5 128q86 39 204.5 56.5t293.5 27.5v36
q0 123 -76 169q-59 38 -195 38q-67 0 -155 -20t-174 -56h-11v191q65 19 160 35t181 16q118 0 196.5 -18.5t139.5 -64.5t91 -119t30 -178v-764h-22q-46 -37 -77.5 -90.5t-31.5 -99.5q0 -34 19 -54t56 -20q38 0 70 14h11zM760 585l-20 -2q-103 -9 -183.5 -19t-131.5 -25
q-173 -54 -173 -203q0 -96 54 -145t158 -49q83 0 154 35t142 98v310z" />
    <glyph glyph-name="Cacute" unicode="&#x106;" horiz-adv-x="1230" 
d="M971 2049l-273 -374h-149l179 374h243zM464 22.5q-122 49.5 -211 145.5q-91 98 -139 243.5t-48 331.5q0 184 47 323.5t139 244.5q90 101 212 153t272 52q135 0 262 -39q94 -29 198 -87v-239h-16q-41 37 -78 66.5t-89 58.5q-63 34 -130 52.5t-149 18.5q-96 0 -181 -39.5
t-148 -114.5q-64 -77 -98.5 -192.5t-34.5 -257.5q0 -286 138 -450q61 -73 145 -111t179 -38q158 0 289 74q89 50 158 119h15v-236l-69 -33l-23 -11q-43 -21 -106.5 -41.5t-119.5 -31.5q-58 -11 -145 -11q-147 0 -269 49.5z" />
    <glyph glyph-name="cacute" unicode="&#x107;" horiz-adv-x="945" 
d="M811 1676l-273 -374h-149l179 374h243zM368 11q-96 36 -164 107q-70 73 -107.5 183.5t-37.5 255.5q0 274 145 434q66 73 164.5 112.5t211.5 39.5q86 0 170.5 -24t159.5 -62v-211h-11q-53 45 -128 84q-41 21 -94 35.5t-100 14.5q-98 0 -170.5 -50t-112.5 -145t-40 -228
q0 -131 38.5 -225.5t111 -144t173.5 -49.5q89 0 172 36.5t150 99.5h11v-211q-32 -15 -74.5 -33t-71.5 -26q-54 -16 -91 -22.5t-93 -6.5q-116 0 -212 36z" />
    <glyph glyph-name="Ccircumflex" unicode="&#x108;" horiz-adv-x="1230" 
d="M1052 1670h-159l-185 256l-184 -256h-155l228 379h227zM464 22.5q-122 49.5 -211 145.5q-91 98 -139 243.5t-48 331.5q0 184 47 323.5t139 244.5q90 101 212 153t272 52q135 0 262 -39q94 -29 198 -87v-239h-16q-41 37 -78 66.5t-89 58.5q-63 34 -130 52.5t-149 18.5
q-96 0 -181 -39.5t-148 -114.5q-64 -77 -98.5 -192.5t-34.5 -257.5q0 -286 138 -450q61 -73 145 -111t179 -38q158 0 289 74q89 50 158 119h15v-236l-69 -33l-23 -11q-43 -21 -106.5 -41.5t-119.5 -31.5q-58 -11 -145 -11q-147 0 -269 49.5z" />
    <glyph glyph-name="ccircumflex" unicode="&#x109;" horiz-adv-x="945" 
d="M891 1297h-159l-185 256l-184 -256h-155l228 379h227zM368 11q-96 36 -164 107q-70 73 -107.5 183.5t-37.5 255.5q0 274 145 434q66 73 164.5 112.5t211.5 39.5q86 0 170.5 -24t159.5 -62v-211h-11q-53 45 -128 84q-41 21 -94 35.5t-100 14.5q-98 0 -170.5 -50
t-112.5 -145t-40 -228q0 -131 38.5 -225.5t111 -144t173.5 -49.5q89 0 172 36.5t150 99.5h11v-211q-32 -15 -74.5 -33t-71.5 -26q-54 -16 -91 -22.5t-93 -6.5q-116 0 -212 36z" />
    <glyph glyph-name="Cdotaccent" unicode="&#x10a;" horiz-adv-x="1230" 
d="M810 1677h-214v195h214v-195zM464 22.5q-122 49.5 -211 145.5q-91 98 -139 243.5t-48 331.5q0 184 47 323.5t139 244.5q90 101 212 153t272 52q135 0 262 -39q94 -29 198 -87v-239h-16q-41 37 -78 66.5t-89 58.5q-63 34 -130 52.5t-149 18.5q-96 0 -181 -39.5
t-148 -114.5q-64 -77 -98.5 -192.5t-34.5 -257.5q0 -286 138 -450q61 -73 145 -111t179 -38q158 0 289 74q89 50 158 119h15v-236l-69 -33l-23 -11q-43 -21 -106.5 -41.5t-119.5 -31.5q-58 -11 -145 -11q-147 0 -269 49.5z" />
    <glyph glyph-name="cdotaccent" unicode="&#x10b;" horiz-adv-x="945" 
d="M654 1304h-214v195h214v-195zM368 11q-96 36 -164 107q-70 73 -107.5 183.5t-37.5 255.5q0 274 145 434q66 73 164.5 112.5t211.5 39.5q86 0 170.5 -24t159.5 -62v-211h-11q-53 45 -128 84q-41 21 -94 35.5t-100 14.5q-98 0 -170.5 -50t-112.5 -145t-40 -228
q0 -131 38.5 -225.5t111 -144t173.5 -49.5q89 0 172 36.5t150 99.5h11v-211q-32 -15 -74.5 -33t-71.5 -26q-54 -16 -91 -22.5t-93 -6.5q-116 0 -212 36z" />
    <glyph glyph-name="Ccaron" unicode="&#x10c;" horiz-adv-x="1230" 
d="M1047 2049l-228 -379h-227l-228 379h159l185 -256l184 256h155zM464 22.5q-122 49.5 -211 145.5q-91 98 -139 243.5t-48 331.5q0 184 47 323.5t139 244.5q90 101 212 153t272 52q135 0 262 -39q94 -29 198 -87v-239h-16q-41 37 -78 66.5t-89 58.5q-63 34 -130 52.5
t-149 18.5q-96 0 -181 -39.5t-148 -114.5q-64 -77 -98.5 -192.5t-34.5 -257.5q0 -286 138 -450q61 -73 145 -111t179 -38q158 0 289 74q89 50 158 119h15v-236l-69 -33l-23 -11q-43 -21 -106.5 -41.5t-119.5 -31.5q-58 -11 -145 -11q-147 0 -269 49.5z" />
    <glyph glyph-name="ccaron" unicode="&#x10d;" horiz-adv-x="945" 
d="M885 1676l-228 -379h-227l-228 379h159l185 -256l184 256h155zM368 11q-96 36 -164 107q-70 73 -107.5 183.5t-37.5 255.5q0 274 145 434q66 73 164.5 112.5t211.5 39.5q86 0 170.5 -24t159.5 -62v-211h-11q-53 45 -128 84q-41 21 -94 35.5t-100 14.5q-98 0 -170.5 -50
t-112.5 -145t-40 -228q0 -131 38.5 -225.5t111 -144t173.5 -49.5q89 0 172 36.5t150 99.5h11v-211q-32 -15 -74.5 -33t-71.5 -26q-54 -16 -91 -22.5t-93 -6.5q-116 0 -212 36z" />
    <glyph glyph-name="Dcaron" unicode="&#x10e;" horiz-adv-x="1389" 
d="M987 2049l-228 -379h-227l-228 379h159l185 -256l184 256h155zM1243.5 377.5q-81.5 -164.5 -222.5 -258.5q-110 -69 -225 -94t-302 -25h-343v1489h339q199 0 320.5 -29.5t212.5 -88.5q147 -97 224.5 -255t77.5 -373q0 -201 -81.5 -365.5zM1062 1039q-57 122 -169 190
q-79 48 -169.5 69t-223.5 21h-151v-1149h151q138 0 235.5 22t176.5 77q104 70 155.5 187.5t51.5 289.5q0 171 -57 293z" />
    <glyph glyph-name="dcaron" unicode="&#x10f;" horiz-adv-x="1407" 
d="M996 0h-188v114q-53 -44 -82.5 -65.5t-68.5 -39.5q-42 -20 -85.5 -30t-97.5 -10q-91 0 -168.5 38.5t-131.5 110.5q-56 76 -85.5 184.5t-29.5 247.5q0 142 36.5 250t106.5 192q61 73 147.5 114.5t181.5 41.5q81 0 143 -17.5t134 -58.5v484h188v-1556zM1473 1556l-240 -505
h-127l142 505h225zM808 916q-69 33 -124.5 46.5t-121.5 13.5q-146 0 -227.5 -109.5t-81.5 -312.5q0 -201 64.5 -303.5t200.5 -102.5q73 0 147.5 33t142.5 91v644z" />
    <glyph glyph-name="Dcroat" unicode="&#x110;" horiz-adv-x="1430" 
d="M1284.5 377.5q-81.5 -164.5 -222.5 -258.5q-73 -49 -147.5 -74.5t-162.5 -35t-217 -9.5h-343v740h-168v143h168v606h339q199 0 320.5 -29.5t212.5 -88.5q147 -97 224.5 -255t77.5 -373q0 -201 -81.5 -365.5zM1103 1039q-57 122 -169 190q-79 48 -169.5 69t-223.5 21h-151
v-436h327v-143h-327v-570h151q137 0 235 22.5t177 76.5q104 70 155.5 187.5t51.5 289.5q0 171 -57 293z" />
    <glyph glyph-name="dcroat" unicode="&#x111;" horiz-adv-x="1174" 
d="M996 0h-188v114q-53 -44 -82.5 -65.5t-68.5 -39.5q-42 -20 -85.5 -30t-97.5 -10q-91 0 -168.5 38.5t-131.5 110.5q-56 76 -85.5 184.5t-29.5 247.5q0 142 36.5 250t106.5 192q61 73 147.5 114.5t181.5 41.5q81 0 143 -17.5t134 -58.5v196h-301v134h301v154h188v-154h166
v-134h-166v-1268zM808 916q-69 33 -124.5 46.5t-121.5 13.5q-146 0 -227.5 -109.5t-81.5 -312.5q0 -201 64.5 -303.5t200.5 -102.5q73 0 147.5 33t142.5 91v644z" />
    <glyph glyph-name="Emacron" unicode="&#x112;" horiz-adv-x="1149" 
d="M992 1698h-754v154h754v-154zM151 0v1489h931v-176h-733v-408h683v-176h-683v-553h733v-176h-931z" />
    <glyph glyph-name="emacron" unicode="&#x113;" horiz-adv-x="1078" 
d="M954 1335h-754v154h754v-154zM317.5 41.5q-126.5 67.5 -192.5 197.5t-66 313q0 180 65 315t182 208t270 73q105 0 184.5 -30.5t139.5 -93.5q62 -65 93 -158.5t31 -224.5v-102h-774q0 -193 97 -297t272 -104q60 0 119 13.5t110 36.5q89 40 144 85h11v-205l-82 -32
q-90 -36 -187 -54q-48 -8 -113 -8q-177 0 -303.5 67.5zM841 683q-4 148 -64 224q-68 86 -212 86q-73 0 -126 -22t-97 -66q-42 -44 -64 -97.5t-28 -124.5h591z" />
    <glyph glyph-name="Ebreve" unicode="&#x114;" horiz-adv-x="1149" 
d="M945 2009q0 -86 -21 -156.5t-60 -118.5q-46 -55 -103.5 -80.5t-144.5 -25.5q-160 0 -247 106q-41 50 -62 120t-21 155h162q0 -133 41.5 -193.5t126.5 -60.5q82 0 124.5 60.5t42.5 193.5h162zM151 0v1489h931v-176h-733v-408h683v-176h-683v-553h733v-176h-931z" />
    <glyph glyph-name="ebreve" unicode="&#x115;" horiz-adv-x="1078" 
d="M902 1636q0 -86 -21 -156.5t-60 -118.5q-46 -55 -103.5 -80.5t-144.5 -25.5q-160 0 -247 106q-41 50 -62 120t-21 155h162q0 -133 41.5 -193.5t126.5 -60.5q82 0 124.5 60.5t42.5 193.5h162zM317.5 41.5q-126.5 67.5 -192.5 197.5t-66 313q0 180 65 315t182 208t270 73
q105 0 184.5 -30.5t139.5 -93.5q62 -65 93 -158.5t31 -224.5v-102h-774q0 -193 97 -297t272 -104q60 0 119 13.5t110 36.5q89 40 144 85h11v-205l-82 -32q-90 -36 -187 -54q-48 -8 -113 -8q-177 0 -303.5 67.5zM841 683q-4 148 -64 224q-68 86 -212 86q-73 0 -126 -22
t-97 -66q-42 -44 -64 -97.5t-28 -124.5h591z" />
    <glyph glyph-name="Edotaccent" unicode="&#x116;" horiz-adv-x="1149" 
d="M756 1677h-214v195h214v-195zM151 0v1489h931v-176h-733v-408h683v-176h-683v-553h733v-176h-931z" />
    <glyph glyph-name="edotaccent" unicode="&#x117;" horiz-adv-x="1078" 
d="M686 1304h-214v195h214v-195zM317.5 41.5q-126.5 67.5 -192.5 197.5t-66 313q0 180 65 315t182 208t270 73q105 0 184.5 -30.5t139.5 -93.5q62 -65 93 -158.5t31 -224.5v-102h-774q0 -193 97 -297t272 -104q60 0 119 13.5t110 36.5q89 40 144 85h11v-205l-82 -32
q-90 -36 -187 -54q-48 -8 -113 -8q-177 0 -303.5 67.5zM841 683q-4 148 -64 224q-68 86 -212 86q-73 0 -126 -22t-97 -66q-42 -44 -64 -97.5t-28 -124.5h591z" />
    <glyph glyph-name="Eogonek" unicode="&#x118;" horiz-adv-x="1149" 
d="M1083 -250v-140q-56 -23 -120 -23q-89 0 -139.5 46.5t-50.5 129.5q0 62 33 127t81 110h-736v1489h931v-176h-733v-408h683v-176h-683v-553h733v-176h-46q-46 -37 -77.5 -90.5t-31.5 -99.5q0 -34 19 -54t56 -20q38 0 70 14h11z" />
    <glyph glyph-name="eogonek" unicode="&#x119;" horiz-adv-x="1078" 
d="M317.5 41.5q-126.5 67.5 -192.5 197.5t-66 313q0 180 65 315t182 208t270 73q105 0 184.5 -30.5t139.5 -93.5q62 -65 93 -158.5t31 -224.5v-102h-774q0 -193 97 -297t272 -104q60 0 119 13.5t110 36.5q89 40 144 85h11v-205l-38 -15l-46 -18q-61 -53 -94 -107
q-42 -68 -42 -118q0 -34 19.5 -54t55.5 -20q30 0 70 14h11v-140q-60 -23 -120 -23q-88 0 -139 47.5t-51 128.5q0 107 95 217q-43 -6 -103 -6q-177 0 -303.5 67.5zM841 683q-4 148 -64 224q-68 86 -212 86q-73 0 -126 -22t-97 -66q-42 -44 -64 -97.5t-28 -124.5h591z" />
    <glyph glyph-name="Ecaron" unicode="&#x11a;" horiz-adv-x="1149" 
d="M987 2049l-228 -379h-227l-228 379h159l185 -256l184 256h155zM151 0v1489h931v-176h-733v-408h683v-176h-683v-553h733v-176h-931z" />
    <glyph glyph-name="ecaron" unicode="&#x11b;" horiz-adv-x="1078" 
d="M907 1676l-228 -379h-227l-228 379h159l185 -256l184 256h155zM317.5 41.5q-126.5 67.5 -192.5 197.5t-66 313q0 180 65 315t182 208t270 73q105 0 184.5 -30.5t139.5 -93.5q62 -65 93 -158.5t31 -224.5v-102h-774q0 -193 97 -297t272 -104q60 0 119 13.5t110 36.5
q89 40 144 85h11v-205l-82 -32q-90 -36 -187 -54q-48 -8 -113 -8q-177 0 -303.5 67.5zM841 683q-4 148 -64 224q-68 86 -212 86q-73 0 -126 -22t-97 -66q-42 -44 -64 -97.5t-28 -124.5h591z" />
    <glyph glyph-name="Gcircumflex" unicode="&#x11c;" horiz-adv-x="1367" 
d="M1081 1670h-159l-185 256l-184 -256h-155l228 379h227zM483.5 19.5q-130.5 48.5 -223.5 145.5q-95 100 -144.5 246.5t-49.5 334.5q0 178 50 320.5t145 245.5q91 98 224 151t291 53q138 0 276 -41q45 -13 104 -38.5t107 -48.5v-239h-17q-45 41 -84 68.5t-104 57.5
q-64 32 -142 51t-164 19q-142 0 -251 -73.5t-169 -208t-60 -311.5q0 -291 136 -452q64 -78 154.5 -118t203.5 -40q87 0 169.5 12.5t137.5 35.5v385h-344v174h540v-650q-134 -60 -220 -84q-80 -24 -138 -34t-137 -10q-160 0 -290.5 48.5z" />
    <glyph glyph-name="gcircumflex" unicode="&#x11d;" horiz-adv-x="1132" 
d="M911 1297h-159l-185 256l-184 -256h-155l228 379h227zM176 -179q62 -27 140 -47q61 -15 103 -22t89 -7q86 0 147 22.5t95 64.5q31 40 44.5 93t13.5 125v98q-79 -69 -152.5 -99t-179.5 -30q-128 0 -222 64t-144.5 187.5t-50.5 298.5q0 135 38 243t106 186q63 72 148.5 111
t178.5 39q83 0 146.5 -19t131.5 -60l11 48h177v-990q0 -283 -123.5 -416.5t-379.5 -133.5q-80 0 -165.5 13t-161.5 35v196h10zM808 916q-69 33 -128.5 48t-119.5 15q-95 0 -164 -47t-106 -138.5t-37 -220.5q0 -190 63.5 -285t201.5 -95q73 0 150.5 29t139.5 81v613z" />
    <glyph glyph-name="Gbreve" unicode="&#x11e;" horiz-adv-x="1367" 
d="M1068 2009q0 -86 -21 -156.5t-60 -118.5q-46 -55 -103.5 -80.5t-144.5 -25.5q-160 0 -247 106q-41 50 -62 120t-21 155h162q0 -133 41.5 -193.5t126.5 -60.5q82 0 124.5 60.5t42.5 193.5h162zM483.5 19.5q-130.5 48.5 -223.5 145.5q-95 100 -144.5 246.5t-49.5 334.5
q0 178 50 320.5t145 245.5q91 98 224 151t291 53q138 0 276 -41q45 -13 104 -38.5t107 -48.5v-239h-17q-45 41 -84 68.5t-104 57.5q-64 32 -142 51t-164 19q-142 0 -251 -73.5t-169 -208t-60 -311.5q0 -291 136 -452q64 -78 154.5 -118t203.5 -40q87 0 169.5 12.5
t137.5 35.5v385h-344v174h540v-650q-134 -60 -220 -84q-80 -24 -138 -34t-137 -10q-160 0 -290.5 48.5z" />
    <glyph glyph-name="gbreve" unicode="&#x11f;" horiz-adv-x="1132" 
d="M894 1636q0 -86 -21 -156.5t-60 -118.5q-46 -55 -103.5 -80.5t-144.5 -25.5q-160 0 -247 106q-41 50 -62 120t-21 155h162q0 -133 41.5 -193.5t126.5 -60.5q82 0 124.5 60.5t42.5 193.5h162zM176 -179q62 -27 140 -47q61 -15 103 -22t89 -7q86 0 147 22.5t95 64.5
q31 40 44.5 93t13.5 125v98q-79 -69 -152.5 -99t-179.5 -30q-128 0 -222 64t-144.5 187.5t-50.5 298.5q0 135 38 243t106 186q63 72 148.5 111t178.5 39q83 0 146.5 -19t131.5 -60l11 48h177v-990q0 -283 -123.5 -416.5t-379.5 -133.5q-80 0 -165.5 13t-161.5 35v196h10z
M808 916q-69 33 -128.5 48t-119.5 15q-95 0 -164 -47t-106 -138.5t-37 -220.5q0 -190 63.5 -285t201.5 -95q73 0 150.5 29t139.5 81v613z" />
    <glyph glyph-name="Gdotaccent" unicode="&#x120;" horiz-adv-x="1367" 
d="M836 1677h-214v195h214v-195zM483.5 19.5q-130.5 48.5 -223.5 145.5q-95 100 -144.5 246.5t-49.5 334.5q0 178 50 320.5t145 245.5q91 98 224 151t291 53q138 0 276 -41q45 -13 104 -38.5t107 -48.5v-239h-17q-45 41 -84 68.5t-104 57.5q-64 32 -142 51t-164 19
q-142 0 -251 -73.5t-169 -208t-60 -311.5q0 -291 136 -452q64 -78 154.5 -118t203.5 -40q87 0 169.5 12.5t137.5 35.5v385h-344v174h540v-650q-134 -60 -220 -84q-80 -24 -138 -34t-137 -10q-160 0 -290.5 48.5z" />
    <glyph glyph-name="gdotaccent" unicode="&#x121;" horiz-adv-x="1132" 
d="M659 1304h-214v195h214v-195zM176 -179q62 -27 140 -47q61 -15 103 -22t89 -7q86 0 147 22.5t95 64.5q31 40 44.5 93t13.5 125v98q-79 -69 -152.5 -99t-179.5 -30q-128 0 -222 64t-144.5 187.5t-50.5 298.5q0 135 38 243t106 186q63 72 148.5 111t178.5 39
q83 0 146.5 -19t131.5 -60l11 48h177v-990q0 -283 -123.5 -416.5t-379.5 -133.5q-80 0 -165.5 13t-161.5 35v196h10zM808 916q-69 33 -128.5 48t-119.5 15q-95 0 -164 -47t-106 -138.5t-37 -220.5q0 -190 63.5 -285t201.5 -95q73 0 150.5 29t139.5 81v613z" />
    <glyph glyph-name="Gcommaaccent" unicode="&#x122;" horiz-adv-x="1367" 
d="M483.5 19.5q-130.5 48.5 -223.5 145.5q-95 100 -144.5 246.5t-49.5 334.5q0 178 50 320.5t145 245.5q91 98 224 151t291 53q138 0 276 -41q45 -13 104 -38.5t107 -48.5v-239h-17q-45 41 -84 68.5t-104 57.5q-64 32 -142 51t-164 19q-142 0 -251 -73.5t-169 -208
t-60 -311.5q0 -291 136 -452q64 -78 154.5 -118t203.5 -40q87 0 169.5 12.5t137.5 35.5v385h-344v174h540v-650q-134 -60 -220 -84q-80 -24 -138 -34t-137 -10q-160 0 -290.5 48.5zM567 -423l137 269h242l-241 -269h-138z" />
    <glyph glyph-name="gcommaaccent" unicode="&#x123;" horiz-adv-x="1132" 
d="M812 1676l-179 -374h-243l273 374h149zM176 -179q62 -27 140 -47q61 -15 103 -22t89 -7q86 0 147 22.5t95 64.5q31 40 44.5 93t13.5 125v98q-79 -69 -152.5 -99t-179.5 -30q-128 0 -222 64t-144.5 187.5t-50.5 298.5q0 135 38 243t106 186q63 72 148.5 111t178.5 39
q83 0 146.5 -19t131.5 -60l11 48h177v-990q0 -283 -123.5 -416.5t-379.5 -133.5q-80 0 -165.5 13t-161.5 35v196h10zM808 916q-69 33 -128.5 48t-119.5 15q-95 0 -164 -47t-106 -138.5t-37 -220.5q0 -190 63.5 -285t201.5 -95q73 0 150.5 29t139.5 81v613z" />
    <glyph glyph-name="Hcircumflex" unicode="&#x124;" horiz-adv-x="1383" 
d="M1034 1670h-159l-185 256l-184 -256h-155l228 379h227zM1232 0h-198v729h-685v-729h-198v1489h198v-584h685v584h198v-1489z" />
    <glyph glyph-name="hcircumflex" unicode="&#x125;" horiz-adv-x="1142" 
d="M940 1670h-159l-185 256l-184 -256h-155l228 379h227zM1014 0h-188v636q0 182 -36 250q-24 43 -65 63t-111 20q-67 0 -141 -36t-149 -99v-834h-188v1556h188v-563q87 78 169 116.5t170 38.5q167 0 259 -109.5t92 -313.5v-725z" />
    <glyph glyph-name="Hbar" unicode="&#x126;" horiz-adv-x="1465" 
d="M1273 0h-198v729h-685v-729h-198v1109h-168v140h168v240h198v-240h685v240h198v-240h168v-140h-168v-1109zM1075 905v204h-685v-204h685z" />
    <glyph glyph-name="hbar" unicode="&#x127;" horiz-adv-x="1184" 
d="M1055 0h-188v636q0 87 -8 150t-28 100q-24 43 -65 63t-111 20q-67 0 -141 -36t-149 -99v-834h-188l1 1268h-166v134h166l-1 154h188l1 -154h301v-134h-301l-1 -275q87 78 169 116.5t170 38.5q167 0 259 -109.5t92 -313.5v-725z" />
    <glyph glyph-name="Itilde" unicode="&#x128;" horiz-adv-x="764" 
d="M755 1992q-7 -149 -66 -226t-159 -77q-51 0 -90 17.5t-76 56.5q-43 43 -74 64t-58 21q-44 0 -66.5 -43.5t-24.5 -122.5h-131q2 97 32 165t80 102.5t112 34.5q47 0 86.5 -18t78.5 -55q44 -43 74.5 -62t58.5 -19q44 0 67.5 44.5t24.5 117.5h131zM671 0h-578v152h190v1185
h-190v152h578v-152h-190v-1185h190v-152z" />
    <glyph glyph-name="itilde" unicode="&#x129;" horiz-adv-x="468" 
d="M525 1596q0 -126 -47.5 -192.5t-129.5 -66.5q-40 0 -69 13t-59 45q-34 38 -56 53.5t-44 15.5q-68 0 -68 -134h-106q0 125 47.5 192t128.5 67q44 0 69 -12t60 -46q35 -38 56.5 -53.5t42.5 -15.5q35 0 52 35t17 99h106zM328 0h-188v1117h188v-1117z" />
    <glyph glyph-name="Imacron" unicode="&#x12a;" horiz-adv-x="764" 
d="M709 1698h-654v154h654v-154zM671 0h-578v152h190v1185h-190v152h578v-152h-190v-1185h190v-152z" />
    <glyph glyph-name="imacron" unicode="&#x12b;" horiz-adv-x="468" 
d="M501 1335h-533v154h533v-154zM328 0h-188v1117h188v-1117z" />
    <glyph glyph-name="Ibreve" unicode="&#x12c;" horiz-adv-x="764" 
d="M681 2003q0 -174 -75 -274.5t-223 -100.5q-147 0 -223 101t-76 274h158q0 -90 14.5 -144.5t45 -79t81.5 -24.5q49 0 79.5 23.5t45.5 77.5t15 147h158zM671 0h-578v152h190v1185h-190v152h578v-152h-190v-1185h190v-152z" />
    <glyph glyph-name="ibreve" unicode="&#x12d;" horiz-adv-x="468" 
d="M513 1611q0 -159 -71.5 -252.5t-207.5 -93.5q-135 0 -207.5 93t-72.5 253h146q0 -121 32 -175t102 -54q68 0 100.5 51t32.5 178h146zM328 0h-188v1117h188v-1117z" />
    <glyph glyph-name="Iogonek" unicode="&#x12e;" horiz-adv-x="764" 
d="M481 1337v-1185h190v-152h-208q-46 -37 -77.5 -90.5t-31.5 -99.5q0 -34 19 -54t56 -20q38 0 70 14h11v-140q-56 -23 -120 -23q-89 0 -139.5 46.5t-50.5 129.5q0 62 33 127t81 110h-221v152h190v1185h-190v152h578v-152h-190z" />
    <glyph glyph-name="iogonek" unicode="&#x12f;" horiz-adv-x="468" 
d="M341 1304h-214v195h214v-195zM357 -250v-140q-56 -23 -120 -23q-89 0 -139.5 46.5t-50.5 129.5q0 62 33 127t81 110h-21v1117h188v-1117h-18q-46 -37 -77.5 -90.5t-31.5 -99.5q0 -34 19 -54t56 -20q38 0 70 14h11z" />
    <glyph glyph-name="Idotaccent" unicode="&#x130;" horiz-adv-x="764" 
d="M490 1677h-214v195h214v-195zM671 0h-578v152h190v1185h-190v152h578v-152h-190v-1185h190v-152z" />
    <glyph glyph-name="dotlessi" unicode="&#x131;" horiz-adv-x="468" 
d="M328 0h-188v1117h188v-1117z" />
    <glyph glyph-name="IJ" unicode="&#x132;" horiz-adv-x="1497" 
d="M661 0h-568v152h190v1185h-190v152h578v-152h-190v-1185h180v-152zM1356 387q0 -129 -53.5 -220.5t-152 -139.5t-232.5 -48q-82 0 -153 10v177h11q68 -17 115 -17q90 0 144 20t82 61q25 37 33 91t8 141v869h-274v158h472v-1102z" />
    <glyph glyph-name="ij" unicode="&#x133;" horiz-adv-x="1056" 
d="M341 1304h-214v195h214v-195zM921 1304h-214v195h214v-195zM328 0h-188v1117h188v-1117zM920 -32q0 -189 -101.5 -290t-283.5 -101q-80 0 -156 12v168h11q23 -6 54.5 -10t54.5 -4q76 0 124 19t72 58q21 34 29 87.5t8 137.5v916h-212v156h400v-1149z" />
    <glyph glyph-name="Jcircumflex" unicode="&#x134;" horiz-adv-x="853" 
d="M811 1670h-159l-185 256l-184 -256h-155l228 379h227zM712 387q0 -129 -54 -220.5t-153 -139.5t-233 -48q-50 0 -130 8.5t-133 20.5v189h11q61 -21 115.5 -34.5t109.5 -13.5q90 0 145 20.5t82 60.5q25 37 33.5 91.5t8.5 140.5v869h-315v158h513v-1102z" />
    <glyph glyph-name="jcircumflex" unicode="&#x135;" horiz-adv-x="577" 
d="M575 1297h-151l-149 267l-148 -267h-147l184 379h227zM441 -32q0 -189 -101.5 -290t-283.5 -101q-70 0 -146 12v168h11q58 -14 99 -14q76 0 124 19t72 58q21 34 29 87.5t8 137.5v916h-202v156h390v-1149z" />
    <glyph glyph-name="Kcommaaccent" unicode="&#x136;" horiz-adv-x="1204" 
d="M1236 0h-257l-543 693l-87 -98v-595h-198v1489h198v-685l610 685h241l-616 -665zM447 -423l137 269h242l-241 -269h-138z" />
    <glyph glyph-name="kcommaaccent" unicode="&#x137;" horiz-adv-x="1020" 
d="M1062 0h-247l-417 539l-74 -72v-467h-188v1556h188v-911l442 472h234l-459 -467zM347 -423l137 269h242l-241 -269h-138z" />
    <glyph glyph-name="kgreenlandic" unicode="&#x138;" horiz-adv-x="1020" 
d="M1062 0h-247l-417 539l-74 -72v-467h-188v1117h188v-472l442 472h234l-459 -467z" />
    <glyph glyph-name="Lacute" unicode="&#x139;" horiz-adv-x="1019" 
d="M691 2049l-273 -374h-149l179 374h243zM1014 0h-863v1489h198v-1313h665v-176z" />
    <glyph glyph-name="lacute" unicode="&#x13a;" horiz-adv-x="468" 
d="M536 2049l-273 -374h-149l179 374h243zM328 0h-188v1556h188v-1556z" />
    <glyph glyph-name="Lcommaaccent" unicode="&#x13b;" horiz-adv-x="1019" 
d="M1014 0h-863v1489h198v-1313h665v-176zM387 -423l137 269h242l-241 -269h-138z" />
    <glyph glyph-name="lcommaaccent" unicode="&#x13c;" horiz-adv-x="468" 
d="M328 0h-188v1556h188v-1556zM-13 -423l137 269h242l-241 -269h-138z" />
    <glyph glyph-name="Lcaron" unicode="&#x13d;" horiz-adv-x="1019" 
d="M951 1556l-240 -505h-127l142 505h225zM1014 0h-863v1489h198v-1313h665v-176z" />
    <glyph glyph-name="lcaron" unicode="&#x13e;" horiz-adv-x="739" 
d="M328 0h-188v1556h188v-1556zM805 1556l-240 -505h-127l142 505h225z" />
    <glyph glyph-name="Ldot" unicode="&#x13f;" horiz-adv-x="1019" 
d="M1014 0h-863v1489h198v-1313h665v-176zM876 519h-233v267h233v-267z" />
    <glyph glyph-name="ldot" unicode="&#x140;" horiz-adv-x="912" 
d="M328 0h-188v1556h188v-1556zM806 520h-231v265h231v-265z" />
    <glyph glyph-name="Lslash" unicode="&#x141;" horiz-adv-x="1060" 
d="M1055 0h-863v543l-168 -138v161l168 135v788h198v-645l327 268v-161l-327 -264v-511h665v-176z" />
    <glyph glyph-name="lslash" unicode="&#x142;" horiz-adv-x="562" 
d="M540 855l-165 -130v-725h-188v589l-163 -134v159l163 130v812h188v-676l165 134v-159z" />
    <glyph glyph-name="Nacute" unicode="&#x143;" horiz-adv-x="1367" 
d="M988 2049l-273 -374h-149l179 374h243zM1216 0h-222l-658 1284v-1284h-185v1489h281l599 -1179v1179h185v-1489z" />
    <glyph glyph-name="nacute" unicode="&#x144;" horiz-adv-x="1142" 
d="M871 1676l-273 -374h-149l179 374h243zM1014 0h-188v636q0 182 -36 250q-24 43 -65 63t-111 20q-67 0 -141 -36t-149 -99v-834h-188v1117h188v-124q87 78 169 116.5t170 38.5q167 0 259 -109.5t92 -313.5v-725z" />
    <glyph glyph-name="Ncommaaccent" unicode="&#x145;" horiz-adv-x="1367" 
d="M1216 0h-222l-658 1284v-1284h-185v1489h281l599 -1179v1179h185v-1489zM447 -423l137 269h242l-241 -269h-138z" />
    <glyph glyph-name="ncommaaccent" unicode="&#x146;" horiz-adv-x="1142" 
d="M1014 0h-188v636q0 182 -36 250q-24 43 -65 63t-111 20q-67 0 -141 -36t-149 -99v-834h-188v1117h188v-124q87 78 169 116.5t170 38.5q167 0 259 -109.5t92 -313.5v-725zM347 -423l137 269h242l-241 -269h-138z" />
    <glyph glyph-name="Ncaron" unicode="&#x147;" horiz-adv-x="1367" 
d="M1042 2049l-228 -379h-227l-228 379h159l185 -256l184 256h155zM1216 0h-222l-658 1284v-1284h-185v1489h281l599 -1179v1179h185v-1489z" />
    <glyph glyph-name="ncaron" unicode="&#x148;" horiz-adv-x="1142" 
d="M925 1676l-228 -379h-227l-228 379h159l185 -256l184 256h155zM1014 0h-188v636q0 182 -36 250q-24 43 -65 63t-111 20q-67 0 -141 -36t-149 -99v-834h-188v1117h188v-124q87 78 169 116.5t170 38.5q167 0 259 -109.5t92 -313.5v-725z" />
    <glyph glyph-name="napostrophe" unicode="&#x149;" horiz-adv-x="1418" 
d="M432 1556l-261 -559h-138l157 559h242zM1290 0h-188v636q0 87 -8 150t-28 100q-24 43 -65 63t-111 20q-67 0 -141 -36t-149 -99v-834h-188v1117h188v-124q87 78 169 116.5t170 38.5q167 0 259 -109.5t92 -313.5v-725z" />
    <glyph glyph-name="Eng" unicode="&#x14a;" horiz-adv-x="1367" 
d="M336 1284v-1284h-185v1489h281l599 -1118v1118h185v-1516q0 -126 -46 -215t-132 -135t-206 -46q-69 0 -145 12v168h11q54 -13 98 -13q94 0 145 26.5t71 79.5t20 139z" />
    <glyph glyph-name="eng" unicode="&#x14b;" horiz-adv-x="1142" 
d="M1014 -32q0 -189 -101 -290t-283 -101q-69 0 -145 12v168h11q58 -14 98 -14q150 0 196 76q21 37 28.5 88.5t7.5 141.5v587q0 182 -36 250q-24 43 -65 63t-111 20q-67 0 -141 -36t-149 -99v-834h-188v1117h188v-124q87 78 169 116.5t170 38.5q167 0 259 -109.5t92 -313.5
v-757z" />
    <glyph glyph-name="Omacron" unicode="&#x14c;" horiz-adv-x="1449" 
d="M1101 1698h-754v154h754v-154zM1336.5 1072.5q46.5 -145.5 46.5 -328.5q0 -180 -46 -326.5t-133 -245.5q-177 -203 -480 -203q-151 0 -272 51t-208 152q-87 100 -132.5 245t-45.5 327q0 362 179 574q86 99 207.5 150.5t271.5 51.5t272.5 -52.5t207.5 -149.5
q86 -100 132.5 -245.5zM1145.5 1004q-31.5 115 -90.5 191q-118 154 -330 154q-108 0 -188.5 -37.5t-142.5 -116.5q-59 -76 -90.5 -191.5t-31.5 -259.5q0 -193 55.5 -328.5t157.5 -205.5t240 -70t240 70t157 205.5t55 328.5q0 145 -31.5 260z" />
    <glyph glyph-name="omacron" unicode="&#x14d;" horiz-adv-x="1112" 
d="M933 1335h-754v154h754v-154zM993.5 240q-61.5 -133 -173.5 -202t-263 -69q-154 0 -267 71.5t-173 204.5t-60 313q0 184 62 317t175 203t263 70q151 0 263 -69.5t173.5 -202.5t61.5 -318t-61.5 -318zM783 879q-78 107 -226 107q-149 0 -227.5 -107t-78.5 -321
q0 -209 79 -318t227 -109q147 0 225.5 108t78.5 319q0 214 -78 321z" />
    </font>
</defs>
</svg>
